找回密码

蓝光电影网

查看: 374|回复: 6

[2160p] 致命诱惑 Fatal.Attraction.1987.2160p.WEB-DL.DD5.1.DV.MP4.x265-TEPES 12.72GB

[复制链接]
蓝光币
382
发表于 5 天前 | 显示全部楼层 |阅读模式


◎译  名 致命引诱/Affairs of the Heart/孽缘(港)/致命的吸引力(台 )/致命的引诱
◎片  名 Fatal Attraction
◎年  代 1987
◎产  地 美国
◎类  别 剧情 / 惊悚
◎语  言 英语
◎上映日期 1987-09-18
◎豆瓣评分 7.0/10 from 4955 users
◎豆瓣链接 https://movie.douban.com/subject/1294587/
◎片  长 119 分钟
◎导  演 阿德里安·莱恩 Adrian Lyne
◎编  剧 詹姆斯·迪尔登 James Dearden
◎主  演 迈克尔·道格拉斯 Michael Douglas
       格伦·克洛斯 Glenn Close
       安妮·阿彻 Anne Archer
       艾伦.汉密尔顿.尼森 Ellen Hamilton Latzen
       简·科拉克斯基 Jane Krakowski
       詹姆斯·埃克豪斯 James Eckhouse
       安娜·莱文 Anna Levine
       乔纳森·布兰戴斯 Jonathan Brandis
       迈克·努斯鲍姆 Mike Nussbaum
       弗雷德·格温 Fred Gwynne
       罗伊丝·史姑娘 Lois Smith
       艾伦·弗雷 Ellen Foley
       斯图尔特·潘金 Stuart Pankin
◎标  签 美国 | 惊悚 | 悬疑 | 美国电影 | 情色 | 剧情 | 1987 | 阿德里安·莱恩
◎简  介


  丹(迈克尔·道格拉斯 Michael Douglas 饰)具有着大家恋慕的幸运家庭,他和妻子贝丝(安妮·阿彻 Anne Archer 饰)之间的豪情安定而又久长,女儿艾伦(Ellen Hamilton Latzen 饰)更是机灵心爱。一次偶然中,不但是鬼摸脑壳还是怎地, 丹居然和一个名叫艾利克斯(格伦·克洛斯 Glenn Close 饰)的女人有了一段露珠情缘,回家前面临妻儿,丹的心里布满了惭愧,他悄悄立誓,绝不让变节再度发生。
  
  惋惜艾利克斯并分歧意但的看法,概况上,她是一个成熟稳重的知性派,可骨子里,艾利克斯却具有着超越凡人的偏执和刚强,为了满足自己的私欲,她不竭的骚扰着丹及其家庭,很快,这类骚扰变升级成为了犯罪。面临来势汹汹的艾利克斯,丹会挑选怎样的对策来庇护他的家庭呢?
◎获奖情况
  第60届奥斯卡金像奖 ?(1988)
  最好影片(提名) 雪莉·兰辛?/?斯坦利·R·贾菲
  最好导演(提名) 阿德里安·莱恩
  最好女配角(提名) 格伦·克洛斯
  最好女配角(提名) 安妮·阿彻
  最好改编剧本(提名) 詹姆斯·迪尔登
  最好剪辑(提名) 迈克尔·卡恩?/?彼得·E·伯格
  
  第12届日本电影学院奖 ?(1989)
  最好外语片(提名)
  1. Video
  2. ID                                       : 1
  3. Format                                   : HEVC
  4. Format/Info                              : High Efficiency Video Coding
  5. Format profile                           : Main [email protected]@High
  6. HDR format                               : Dolby Vision, Version 1.0, dvhe.05.06, BL+RPU
  7. Codec ID                                 : dvhe
  8. Codec ID/Info                            : High Efficiency Video Coding with Dolby Vision
  9. Duration                                 : 1 h 59 min
  10. Bit rate                                 : 14.9 Mb/s
  11. Width                                    : 3 840 pixels
  12. Height                                   : 2 160 pixels
  13. Display aspect ratio                     : 16:9
  14. Frame rate mode                          : Constant
  15. Frame rate                               : 23.976 (24000/1001/189150) FPS
  16. Color space                              : YUV
  17. Chroma subsampling                       : 4:2:0 (Type 0)
  18. Bit depth                                : 10 bits
  19. Bits/(Pixel*Frame)                       : 0.075
  20. Stream size                              : 12.4 GiB (97%)
  21. Default                                  : Yes
  22. Alternate group                          : 1
  23. Encoded date                             : UTC 2021-09-12 08:09:24
  24. Tagged date                              : UTC 2021-09-12 08:13:05
  25. Color range                              : Full
  26. Codec configuration box                  : hvcC+dvcC

  27. Audio
  28. ID                                       : 2
  29. Format                                   : AC-3
  30. Format/Info                              : Audio Coding 3
  31. Commercial name                          : Dolby Digital
  32. Codec ID                                 : ac-3
  33. Duration                                 : 1 h 59 min
  34. Bit rate mode                            : Constant
  35. Bit rate                                 : 384 kb/s
  36. Maximum bit rate                         : 406 kb/s
  37. Channel(s)                               : 6 channels
  38. Channel layout                           : L R C LFE Ls Rs
  39. Sampling rate                            : 48.0 kHz
  40. Frame rate                               : 31.250 FPS (1536 SPF)
  41. Compression mode                         : Lossy
  42. Stream size                              : 328 MiB (3%)
  43. Language                                 : English
  44. Service kind                             : Complete Main
  45. Encoded date                             : UTC 2021-09-12 05:36:42
  46. Tagged date                              : UTC 2021-09-12 08:13:05

  47. Text
  48. ID                                       : 3
  49. Format                                   : Timed Text
  50. Codec ID                                 : tx3g
  51. Duration                                 : 1 h 52 min
  52. Bit rate mode                            : Variable
  53. Bit rate                                 : 46 b/s
  54. Stream size                              : 37.5 KiB (0%)
  55. Title                                    : English
  56. Language                                 : English
  57. Forced                                   : No
  58. Encoded date                             : UTC 2021-09-12 08:13:05
  59. Tagged date                              : UTC 2021-09-12 08:13:05
复制代码




                                       
                                       

                                       
                                       
                                       




回复

使用道具 举报

蓝光币
0
发表于 5 天前 | 显示全部楼层
OK
好片。。。。。点赞
回复 支持 反对

使用道具 举报

蓝光币
50
发表于 5 天前 | 显示全部楼层

感谢楼主的无私分享!要想蓝光电影网好 就靠你我他
回复 支持 反对

使用道具 举报

蓝光币
4
发表于 5 天前 | 显示全部楼层

楼主,我太崇拜你了!我想我是一天也不能离开蓝光电影网。
回复 支持 反对

使用道具 举报

蓝光币
7
发表于 5 天前 | 显示全部楼层
感谢楼主的无私分享
回复 支持 反对

使用道具 举报

蓝光币
2931
发表于 5 天前 | 显示全部楼层

楼主,我太崇拜你了!我想我是一天也不能离开蓝光电影网。
回复 支持 反对

使用道具 举报

蓝光币
878
发表于 前天 13:26 | 显示全部楼层
来看看外国大逼的致命诱惑。
回复 支持 反对

使用道具 举报

懒得打字嘛,点击右侧快捷回复 【右侧内容,后台自定义】
您需要登录后才可以回帖 登录 | 立即加入

本版积分规则

Archiver|小黑屋| 蓝光电影网 |网站地图

Copyright © 2021 Comsenz Inc. Powered by 蓝光电影网

蓝光电影网

本站内容由用户自主分享和转载自互联网,转载目的在于传递更多信息,并不代表本网赞同其观点和对其真实性负责。

如有侵权、违反国家法律政策行为,请联系我们,我们会第一时间及时清除和处理!

举报反馈邮箱:[email protected]

快速回复 返回顶部 返回列表