找回密码

蓝光电影网

查看: 115|回复: 6

[UHD.HEVC] 肖申克的救赎/刺激1995 The.Shawshank.Redemption.1994.2160p.BluRay.REMUX.HEVC.DTS-HD.MA.5.1-FGT 57.98GB

[复制链接]
蓝光币
382
发表于 6 天前 | 显示全部楼层 |阅读模式


◎译  名 肖申克的救赎/刺激1995(台)/天堂信誉/月黑高飞(港)/消香克的救赎/铁窗光阴
◎片  名 The Shawshank Redemption
◎年  代 1994
◎产  地 美国
◎类  别 剧情 / 犯罪
◎语  言 英语
◎上映日期 1994-09-10(多伦多电影节) / 1994-10-14(美国)
◎豆瓣评分 9.7/10 from 2445199 users
◎豆瓣链接 https://movie.douban.com/subject/1292052/
◎片  长 142分钟
◎导  演 弗兰克·德拉邦特 Frank Darabont
◎编  剧 弗兰克·德拉邦特 Frank Darabont / 斯蒂芬·金 Stephen King
◎主  演 蒂姆·罗宾斯 Tim Robbins
       摩根·弗里曼 Morgan Freeman
       鲍勃·冈顿 Bob Gunton
       威廉姆·赛德勒 William Sadler
       克兰西·布朗 Clancy Brown
       吉尔·贝罗斯 Gil Bellows
       马克·罗斯顿 Mark Rolston
       詹姆斯·惠特摩 James Whitmore
       杰弗里·德曼 Jeffrey DeMunn
       拉里·布兰登伯格 Larry Brandenburg
       尼尔·吉恩托利 Neil Giuntoli
       布赖恩·利比 Brian Libby
       大卫·普罗瓦尔 David Proval
       约瑟夫·劳格诺 Joseph Ragno
       祖德·塞克利拉 Jude Ciccolella
       保罗·麦克兰尼 Paul McCrane
       芮妮·布莱恩 Renee Blaine
       阿方索·弗里曼 Alfonso Freeman
       V·J·福斯特 V.J. Foster
       弗兰克·梅德拉诺 Frank Medrano
       马克·迈尔斯 Mack Miles
       尼尔·萨默斯 Neil Summers
       耐德·巴拉米 Ned Bellamy
       布赖恩·戴拉特 Brian Delate
       唐·麦克马纳斯 Don McManus
◎标  签 典范 | 励志 | 信心 | 自在 | 人性 | 人生 | 希望 | 美国
◎简  介


  一场谋杀案使银里手安迪(蒂姆?罗宾斯 Tim Robbins 饰)蒙冤入狱,谋杀妻子及其情人的控告将软禁他终生。在肖申克牢狱的初次现身就让牢狱“年老”瑞德(摩根?弗里曼 Morgan Freeman 饰)对他另眼相看。瑞德帮助他搞到一把石锤和一幅女明星海报,两人渐成磨难 之交。很快,安迪在牢狱里大显其才,担任牢狱图书治理员,并操纵自己的金融常识帮助牢狱官避税,引发了典狱长的留意,被招致麾下帮助典狱长洗陋规。偶然一次,他得知一位新入狱的小偷可以作证帮他洗脱谋杀罪。燃起一丝希望的安迪找到了典狱长,希望他能帮自己昭雪。凶险伪善的狱长伪装答应安迪,背后却派人杀死小偷,让他唯一能正当出狱的希望耗费。沮丧的安迪并没有失望,在一个电闪雷鸣的风雨夜,一场隐藏几十年的逃狱计划让他自我救赎,重获自在!老朋友瑞德在他的鼓舞和帮助下,也勇敢地奔向自在。
  
  本片获得1995年奥斯卡10项提名,以及金球奖、土星奖等多项提名。
◎获奖情况
  第67届奥斯卡金像奖 ?(1995)
  最好影片(提名) 妮基·马文
  最好男配角(提名) 摩根·弗里曼
  最好改编剧本(提名) 弗兰克·德拉邦特
  最好摄影(提名) 罗杰·狄金斯
  最好剪辑(提名) 理查德·弗朗西斯-布鲁斯
  最好声响(提名) 威利·D·伯顿?/?迈克尔·赫尔比克?/?罗伯特·J·利特?/?艾略特·泰森
  最好原创配乐(提名) 托马斯·纽曼
  
  第52届金球奖 ?(1995)
  电影类剧情片最好男配角(提名) 摩根·弗里曼
  电影类最好编剧(提名) 弗兰克·德拉邦特
  
  第19届日本电影学院奖 ?(1996)
  最好外语片
  
  第20届报知映画赏 ?(1995)
  外洋作品奖 弗兰克·德拉邦特
  1. Video
  2. ID                                       : 1
  3. ID in the original source medium         : 4113 (0x1011)
  4. Format                                   : HEVC
  5. Format/Info                              : High Efficiency Video Coding
  6. Format profile                           : Main [email protected]@High
  7. HDR format                               : SMPTE ST 2086, HDR10 compatible
  8. Codec ID                                 : V_MPEGH/ISO/HEVC
  9. Duration                                 : 2 h 22 min
  10. Bit rate                                 : 49.0 Mb/s
  11. Width                                    : 3 840 pixels
  12. Height                                   : 2 160 pixels
  13. Display aspect ratio                     : 16:9
  14. Frame rate mode                          : Constant
  15. Frame rate                               : 23.976 (24000/1001/189150) FPS
  16. Color space                              : YUV
  17. Chroma subsampling                       : 4:2:0 (Type 2)
  18. Bit depth                                : 10 bits
  19. Bits/(Pixel*Frame)                       : 0.247
  20. Stream size                              : 48.8 GiB (84%)
  21. Language                                 : English
  22. Default                                  : No
  23. Forced                                   : No
  24. Color range                              : Limited
  25. Color primaries                          : BT.2020
  26. Transfer characteristics                 : PQ
  27. Matrix coefficients                      : BT.2020 non-constant
  28. Mastering display color primaries        : Display P3
  29. Mastering display luminance              : min: 0.0050 cd/m2, max: 4000 cd/m2
  30. Maximum Content Light Level              : 833 cd/m2
  31. Maximum Frame-Average Light Level        : 108 cd/m2
  32. Original source medium                   : Blu-ray
  33. Audio #1
  34. ID                                       : 2
  35. ID in the original source medium         : 4352 (0x1100)
  36. Format                                   : DTS XLL
  37. Format/Info                              : Digital Theater Systems
  38. Commercial name                          : DTS-HD Master Audio
  39. Codec ID                                 : A_DTS
  40. Duration                                 : 2 h 22 min
  41. Bit rate mode                            : Variable
  42. Bit rate                                 : 4 207 kb/s
  43. Channel(s)                               : 6 channels
  44. Channel layout                           : C L R Ls Rs LFE
  45. Sampling rate                            : 48.0 kHz
  46. Frame rate                               : 93.750 FPS (512 SPF)
  47. Bit depth                                : 24 bits
  48. Compression mode                         : Lossless
  49. Stream size                              : 4.19 GiB (7%)
  50. Title                                    : DTS-HD MA 5.1
  51. Language                                 : English
  52. Default                                  : Yes
  53. Forced                                   : No
  54. Original source medium                   : Blu-ray
  55. Audio #2
  56. ID                                       : 3
  57. Format                                   : AC-3
  58. Format/Info                              : Audio Coding 3
  59. Commercial name                          : Dolby Digital
  60. Codec ID                                 : A_AC3
  61. Duration                                 : 2 h 22 min
  62. Bit rate mode                            : Constant
  63. Bit rate                                 : 640 kb/s
  64. Channel(s)                               : 6 channels
  65. Channel layout                           : L R C LFE Ls Rs
  66. Sampling rate                            : 48.0 kHz
  67. Frame rate                               : 31.250 FPS (1536 SPF)
  68. Compression mode                         : Lossy
  69. Stream size                              : 653 MiB (1%)
  70. Title                                    : DD 5.1
  71. Language                                 : English
  72. Service kind                             : Complete Main
  73. Default                                  : No
  74. Forced                                   : No
  75. Audio #3
  76. ID                                       : 4
  77. ID in the original source medium         : 4352 (0x1100)
  78. Format                                   : DTS
  79. Format/Info                              : Digital Theater Systems
  80. Codec ID                                 : A_DTS
  81. Duration                                 : 2 h 22 min
  82. Bit rate mode                            : Constant
  83. Bit rate                                 : 1 509 kb/s
  84. Channel(s)                               : 6 channels
  85. Channel layout                           : C L R Ls Rs LFE
  86. Sampling rate                            : 48.0 kHz
  87. Frame rate                               : 93.750 FPS (512 SPF)
  88. Bit depth                                : 24 bits
  89. Compression mode                         : Lossy
  90. Stream size                              : 1.50 GiB (3%)
  91. Title                                    : DD 5.1
  92. Language                                 : English
  93. Default                                  : No
  94. Forced                                   : No
  95. Original source medium                   : Blu-ray
  96. Audio #4
  97. ID                                       : 5
  98. ID in the original source medium         : 4353 (0x1101)
  99. Format                                   : AC-3
  100. Format/Info                              : Audio Coding 3
  101. Commercial name                          : Dolby Digital
  102. Format settings                          : Dolby Surround
  103. Codec ID                                 : A_AC3
  104. Duration                                 : 2 h 22 min
  105. Bit rate mode                            : Constant
  106. Bit rate                                 : 192 kb/s
  107. Channel(s)                               : 2 channels
  108. Channel layout                           : L R
  109. Sampling rate                            : 48.0 kHz
  110. Frame rate                               : 31.250 FPS (1536 SPF)
  111. Compression mode                         : Lossy
  112. Stream size                              : 196 MiB (0%)
  113. Title                                    : DD 2.0
  114. Language                                 : French
  115. Service kind                             : Complete Main
  116. Default                                  : No
  117. Forced                                   : No
  118. Original source medium                   : Blu-ray
  119. Audio #5
  120. ID                                       : 6
  121. ID in the original source medium         : 4354 (0x1102)
  122. Format                                   : AC-3
  123. Format/Info                              : Audio Coding 3
  124. Commercial name                          : Dolby Digital
  125. Format settings                          : Dolby Surround
  126. Codec ID                                 : A_AC3
  127. Duration                                 : 2 h 22 min
  128. Bit rate mode                            : Constant
  129. Bit rate                                 : 192 kb/s
  130. Channel(s)                               : 2 channels
  131. Channel layout                           : L R
  132. Sampling rate                            : 48.0 kHz
  133. Frame rate                               : 31.250 FPS (1536 SPF)
  134. Compression mode                         : Lossy
  135. Stream size                              : 196 MiB (0%)
  136. Title                                    : DD 2.0
  137. Language                                 : French
  138. Service kind                             : Complete Main
  139. Default                                  : No
  140. Forced                                   : No
  141. Original source medium                   : Blu-ray
  142. Audio #6
  143. ID                                       : 7
  144. ID in the original source medium         : 4355 (0x1103)
  145. Format                                   : AC-3
  146. Format/Info                              : Audio Coding 3
  147. Commercial name                          : Dolby Digital
  148. Format settings                          : Dolby Surround
  149. Codec ID                                 : A_AC3
  150. Duration                                 : 2 h 22 min
  151. Bit rate mode                            : Constant
  152. Bit rate                                 : 192 kb/s
  153. Channel(s)                               : 2 channels
  154. Channel layout                           : L R
  155. Sampling rate                            : 48.0 kHz
  156. Frame rate                               : 31.250 FPS (1536 SPF)
  157. Compression mode                         : Lossy
  158. Stream size                              : 196 MiB (0%)
  159. Title                                    : DD 2.0
  160. Language                                 : German
  161. Service kind                             : Complete Main
  162. Default                                  : No
  163. Forced                                   : No
  164. Original source medium                   : Blu-ray
  165. Audio #7
  166. ID                                       : 8
  167. ID in the original source medium         : 4356 (0x1104)
  168. Format                                   : AC-3
  169. Format/Info                              : Audio Coding 3
  170. Commercial name                          : Dolby Digital
  171. Codec ID                                 : A_AC3
  172. Duration                                 : 2 h 22 min
  173. Bit rate mode                            : Constant
  174. Bit rate                                 : 192 kb/s
  175. Channel(s)                               : 2 channels
  176. Channel layout                           : L R
  177. Sampling rate                            : 48.0 kHz
  178. Frame rate                               : 31.250 FPS (1536 SPF)
  179. Compression mode                         : Lossy
  180. Stream size                              : 196 MiB (0%)
  181. Title                                    : DD 2.0
  182. Language                                 : Italian
  183. Service kind                             : Complete Main
  184. Default                                  : No
  185. Forced                                   : No
  186. Original source medium                   : Blu-ray
  187. Audio #8
  188. ID                                       : 9
  189. ID in the original source medium         : 4357 (0x1105)
  190. Format                                   : AC-3
  191. Format/Info                              : Audio Coding 3
  192. Commercial name                          : Dolby Digital
  193. Format settings                          : Dolby Surround
  194. Codec ID                                 : A_AC3
  195. Duration                                 : 2 h 22 min
  196. Bit rate mode                            : Constant
  197. Bit rate                                 : 192 kb/s
  198. Channel(s)                               : 2 channels
  199. Channel layout                           : L R
  200. Sampling rate                            : 48.0 kHz
  201. Frame rate                               : 31.250 FPS (1536 SPF)
  202. Compression mode                         : Lossy
  203. Stream size                              : 196 MiB (0%)
  204. Title                                    : DD 2.0
  205. Language                                 : Spanish
  206. Service kind                             : Complete Main
  207. Default                                  : No
  208. Forced                                   : No
  209. Original source medium                   : Blu-ray
  210. Audio #9
  211. ID                                       : 10
  212. ID in the original source medium         : 4358 (0x1106)
  213. Format                                   : AC-3
  214. Format/Info                              : Audio Coding 3
  215. Commercial name                          : Dolby Digital
  216. Codec ID                                 : A_AC3
  217. Duration                                 : 2 h 22 min
  218. Bit rate mode                            : Constant
  219. Bit rate                                 : 640 kb/s
  220. Channel(s)                               : 6 channels
  221. Channel layout                           : L R C LFE Ls Rs
  222. Sampling rate                            : 48.0 kHz
  223. Frame rate                               : 31.250 FPS (1536 SPF)
  224. Compression mode                         : Lossy
  225. Stream size                              : 653 MiB (1%)
  226. Title                                    : DD 5.1
  227. Language                                 : Chinese
  228. Service kind                             : Complete Main
  229. Default                                  : No
  230. Forced                                   : No
  231. Original source medium                   : Blu-ray
  232. Audio #10
  233. ID                                       : 11
  234. ID in the original source medium         : 4359 (0x1107)
  235. Format                                   : AC-3
  236. Format/Info                              : Audio Coding 3
  237. Commercial name                          : Dolby Digital
  238. Format settings                          : Dolby Surround
  239. Codec ID                                 : A_AC3
  240. Duration                                 : 2 h 22 min
  241. Bit rate mode                            : Constant
  242. Bit rate                                 : 192 kb/s
  243. Channel(s)                               : 2 channels
  244. Channel layout                           : L R
  245. Sampling rate                            : 48.0 kHz
  246. Frame rate                               : 31.250 FPS (1536 SPF)
  247. Compression mode                         : Lossy
  248. Stream size                              : 196 MiB (0%)
  249. Title                                    : DD 2.0
  250. Language                                 : Spanish
  251. Service kind                             : Complete Main
  252. Default                                  : No
  253. Forced                                   : No
  254. Original source medium                   : Blu-ray
  255. Audio #11
  256. ID                                       : 12
  257. ID in the original source medium         : 4360 (0x1108)
  258. Format                                   : AC-3
  259. Format/Info                              : Audio Coding 3
  260. Commercial name                          : Dolby Digital
  261. Format settings                          : Dolby Surround
  262. Codec ID                                 : A_AC3
  263. Duration                                 : 2 h 22 min
  264. Bit rate mode                            : Constant
  265. Bit rate                                 : 192 kb/s
  266. Channel(s)                               : 2 channels
  267. Channel layout                           : L R
  268. Sampling rate                            : 48.0 kHz
  269. Frame rate                               : 31.250 FPS (1536 SPF)
  270. Compression mode                         : Lossy
  271. Stream size                              : 196 MiB (0%)
  272. Title                                    : DD 2.0
  273. Language                                 : Hungarian
  274. Service kind                             : Complete Main
  275. Default                                  : No
  276. Forced                                   : No
  277. Original source medium                   : Blu-ray
  278. Audio #12
  279. ID                                       : 13
  280. ID in the original source medium         : 4361 (0x1109)
  281. Format                                   : AC-3
  282. Format/Info                              : Audio Coding 3
  283. Commercial name                          : Dolby Digital
  284. Format settings                          : Dolby Surround
  285. Codec ID                                 : A_AC3
  286. Duration                                 : 2 h 22 min
  287. Bit rate mode                            : Constant
  288. Bit rate                                 : 192 kb/s
  289. Channel(s)                               : 2 channels
  290. Channel layout                           : L R
  291. Sampling rate                            : 48.0 kHz
  292. Frame rate                               : 31.250 FPS (1536 SPF)
  293. Compression mode                         : Lossy
  294. Stream size                              : 196 MiB (0%)
  295. Title                                    : DD 2.0
  296. Language                                 : Polish
  297. Service kind                             : Complete Main
  298. Default                                  : No
  299. Forced                                   : No
  300. Original source medium                   : Blu-ray
  301. Audio #13
  302. ID                                       : 14
  303. ID in the original source medium         : 4362 (0x110A)
  304. Format                                   : AC-3
  305. Format/Info                              : Audio Coding 3
  306. Commercial name                          : Dolby Digital
  307. Format settings                          : Dolby Surround
  308. Codec ID                                 : A_AC3
  309. Duration                                 : 2 h 22 min
  310. Bit rate mode                            : Constant
  311. Bit rate                                 : 192 kb/s
  312. Channel(s)                               : 2 channels
  313. Channel layout                           : L R
  314. Sampling rate                            : 48.0 kHz
  315. Frame rate                               : 31.250 FPS (1536 SPF)
  316. Compression mode                         : Lossy
  317. Stream size                              : 196 MiB (0%)
  318. Title                                    : DD 2.0
  319. Language                                 : Japanese
  320. Service kind                             : Complete Main
  321. Default                                  : No
  322. Forced                                   : No
  323. Original source medium                   : Blu-ray
  324. Audio #14
  325. ID                                       : 15
  326. ID in the original source medium         : 4363 (0x110B)
  327. Format                                   : AC-3
  328. Format/Info                              : Audio Coding 3
  329. Commercial name                          : Dolby Digital
  330. Format settings                          : Dolby Surround
  331. Codec ID                                 : A_AC3
  332. Duration                                 : 2 h 22 min
  333. Bit rate mode                            : Constant
  334. Bit rate                                 : 192 kb/s
  335. Channel(s)                               : 2 channels
  336. Channel layout                           : L R
  337. Sampling rate                            : 48.0 kHz
  338. Frame rate                               : 31.250 FPS (1536 SPF)
  339. Compression mode                         : Lossy
  340. Stream size                              : 196 MiB (0%)
  341. Title                                    : DD 2.0
  342. Language                                 : English
  343. Service kind                             : Complete Main
  344. Default                                  : No
  345. Forced                                   : No
  346. Original source medium                   : Blu-ray
  347. Text #1
  348. ID                                       : 16
  349. Format                                   : UTF-8
  350. Codec ID                                 : S_TEXT/UTF8
  351. Codec ID/Info                            : UTF-8 Plain Text
  352. Duration                                 : 2 h 17 min
  353. Bit rate                                 : 58 b/s
  354. Count of elements                        : 1734
  355. Stream size                              : 58.4 KiB (0%)
  356. Title                                    : SRT
  357. Language                                 : English
  358. Default                                  : Yes
  359. Forced                                   : No
  360. Text #2
  361. ID                                       : 17
  362. ID in the original source medium         : 4768 (0x12A0)
  363. Format                                   : PGS
  364. Muxing mode                              : zlib
  365. Codec ID                                 : S_HDMV/PGS
  366. Codec ID/Info                            : Picture based subtitle format used on BDs/HD-DVDs
  367. Duration                                 : 2 h 16 min
  368. Bit rate                                 : 20.8 kb/s
  369. Count of elements                        : 2901
  370. Stream size                              : 20.2 MiB (0%)
  371. Language                                 : Japanese
  372. Default                                  : No
  373. Forced                                   : No
  374. Original source medium                   : Blu-ray
  375. Text #3
  376. ID                                       : 18
  377. ID in the original source medium         : 4769 (0x12A1)
  378. Format                                   : PGS
  379. Muxing mode                              : zlib
  380. Codec ID                                 : S_HDMV/PGS
  381. Codec ID/Info                            : Picture based subtitle format used on BDs/HD-DVDs
  382. Duration                                 : 2 h 17 min
  383. Bit rate                                 : 34.9 kb/s
  384. Count of elements                        : 3556
  385. Stream size                              : 34.3 MiB (0%)
  386. Language                                 : English
  387. Default                                  : No
  388. Forced                                   : No
  389. Original source medium                   : Blu-ray
  390. Text #4
  391. ID                                       : 19
  392. ID in the original source medium         : 4770 (0x12A2)
  393. Format                                   : PGS
  394. Muxing mode                              : zlib
  395. Codec ID                                 : S_HDMV/PGS
  396. Codec ID/Info                            : Picture based subtitle format used on BDs/HD-DVDs
  397. Duration                                 : 2 h 21 min
  398. Bit rate                                 : 22.0 kb/s
  399. Count of elements                        : 3176
  400. Stream size                              : 22.3 MiB (0%)
  401. Language                                 : French
  402. Default                                  : No
  403. Forced                                   : No
  404. Original source medium                   : Blu-ray
  405. Text #5
  406. ID                                       : 20
  407. ID in the original source medium         : 4771 (0x12A3)
  408. Format                                   : PGS
  409. Muxing mode                              : zlib
  410. Codec ID                                 : S_HDMV/PGS
  411. Codec ID/Info                            : Picture based subtitle format used on BDs/HD-DVDs
  412. Duration                                 : 2 h 21 min
  413. Bit rate                                 : 37.6 kb/s
  414. Count of elements                        : 3522
  415. Stream size                              : 37.9 MiB (0%)
  416. Language                                 : German
  417. Default                                  : No
  418. Forced                                   : No
  419. Original source medium                   : Blu-ray
  420. Text #6
  421. ID                                       : 21
  422. ID in the original source medium         : 4772 (0x12A4)
  423. Format                                   : PGS
  424. Muxing mode                              : zlib
  425. Codec ID                                 : S_HDMV/PGS
  426. Codec ID/Info                            : Picture based subtitle format used on BDs/HD-DVDs
  427. Duration                                 : 2 h 17 min
  428. Bit rate                                 : 34.5 kb/s
  429. Count of elements                        : 3536
  430. Stream size                              : 33.9 MiB (0%)
  431. Language                                 : Italian
  432. Default                                  : No
  433. Forced                                   : No
  434. Original source medium                   : Blu-ray
  435. Text #7
  436. ID                                       : 22
  437. ID in the original source medium         : 4773 (0x12A5)
  438. Format                                   : PGS
  439. Muxing mode                              : zlib
  440. Codec ID                                 : S_HDMV/PGS
  441. Codec ID/Info                            : Picture based subtitle format used on BDs/HD-DVDs
  442. Duration                                 : 2 h 21 min
  443. Bit rate                                 : 31.7 kb/s
  444. Count of elements                        : 3472
  445. Stream size                              : 32.1 MiB (0%)
  446. Language                                 : Spanish
  447. Default                                  : No
  448. Forced                                   : No
  449. Original source medium                   : Blu-ray
  450. Text #8
  451. ID                                       : 23
  452. ID in the original source medium         : 4774 (0x12A6)
  453. Format                                   : PGS
  454. Muxing mode                              : zlib
  455. Codec ID                                 : S_HDMV/PGS
  456. Codec ID/Info                            : Picture based subtitle format used on BDs/HD-DVDs
  457. Duration                                 : 2 h 20 min
  458. Bit rate                                 : 29.8 kb/s
  459. Count of elements                        : 3020
  460. Stream size                              : 29.9 MiB (0%)
  461. Language                                 : Dutch
  462. Default                                  : No
  463. Forced                                   : No
  464. Original source medium                   : Blu-ray
  465. Text #9
  466. ID                                       : 24
  467. ID in the original source medium         : 4775 (0x12A7)
  468. Format                                   : PGS
  469. Muxing mode                              : zlib
  470. Codec ID                                 : S_HDMV/PGS
  471. Codec ID/Info                            : Picture based subtitle format used on BDs/HD-DVDs
  472. Duration                                 : 2 h 17 min
  473. Bit rate                                 : 28.3 kb/s
  474. Count of elements                        : 3416
  475. Stream size                              : 27.9 MiB (0%)
  476. Language                                 : Chinese
  477. Default                                  : No
  478. Forced                                   : No
  479. Original source medium                   : Blu-ray
  480. Text #10
  481. ID                                       : 25
  482. ID in the original source medium         : 4776 (0x12A8)
  483. Format                                   : PGS
  484. Muxing mode                              : zlib
  485. Codec ID                                 : S_HDMV/PGS
  486. Codec ID/Info                            : Picture based subtitle format used on BDs/HD-DVDs
  487. Duration                                 : 2 h 17 min
  488. Bit rate                                 : 28.5 kb/s
  489. Count of elements                        : 3416
  490. Stream size                              : 28.1 MiB (0%)
  491. Language                                 : Chinese
  492. Default                                  : No
  493. Forced                                   : No
  494. Original source medium                   : Blu-ray
  495. Text #11
  496. ID                                       : 26
  497. ID in the original source medium         : 4777 (0x12A9)
  498. Format                                   : PGS
  499. Muxing mode                              : zlib
  500. Codec ID                                 : S_HDMV/PGS
  501. Codec ID/Info                            : Picture based subtitle format used on BDs/HD-DVDs
  502. Duration                                 : 2 h 17 min
  503. Bit rate                                 : 24.0 kb/s
  504. Count of elements                        : 3444
  505. Stream size                              : 23.6 MiB (0%)
  506. Language                                 : Korean
  507. Default                                  : No
  508. Forced                                   : No
  509. Original source medium                   : Blu-ray
  510. Text #12
  511. ID                                       : 27
  512. ID in the original source medium         : 4778 (0x12AA)
  513. Format                                   : PGS
  514. Muxing mode                              : zlib
  515. Codec ID                                 : S_HDMV/PGS
  516. Codec ID/Info                            : Picture based subtitle format used on BDs/HD-DVDs
  517. Duration                                 : 2 h 17 min
  518. Bit rate                                 : 29.6 kb/s
  519. Count of elements                        : 3390
  520. Stream size                              : 29.1 MiB (0%)
  521. Language                                 : Spanish
  522. Default                                  : No
  523. Forced                                   : No
  524. Original source medium                   : Blu-ray
  525. Text #13
  526. ID                                       : 28
  527. ID in the original source medium         : 4779 (0x12AB)
  528. Format                                   : PGS
  529. Muxing mode                              : zlib
  530. Codec ID                                 : S_HDMV/PGS
  531. Codec ID/Info                            : Picture based subtitle format used on BDs/HD-DVDs
  532. Duration                                 : 2 h 21 min
  533. Bit rate                                 : 28.8 kb/s
  534. Count of elements                        : 3412
  535. Stream size                              : 29.1 MiB (0%)
  536. Language                                 : Czech
  537. Default                                  : No
  538. Forced                                   : No
  539. Original source medium                   : Blu-ray
  540. Text #14
  541. ID                                       : 29
  542. ID in the original source medium         : 4780 (0x12AC)
  543. Format                                   : PGS
  544. Muxing mode                              : zlib
  545. Codec ID                                 : S_HDMV/PGS
  546. Codec ID/Info                            : Picture based subtitle format used on BDs/HD-DVDs
  547. Duration                                 : 2 h 21 min
  548. Bit rate                                 : 34.6 kb/s
  549. Count of elements                        : 3724
  550. Stream size                              : 35.1 MiB (0%)
  551. Language                                 : Danish
  552. Default                                  : No
  553. Forced                                   : No
  554. Original source medium                   : Blu-ray
  555. Text #15
  556. ID                                       : 30
  557. ID in the original source medium         : 4781 (0x12AD)
  558. Format                                   : PGS
  559. Muxing mode                              : zlib
  560. Codec ID                                 : S_HDMV/PGS
  561. Codec ID/Info                            : Picture based subtitle format used on BDs/HD-DVDs
  562. Duration                                 : 2 h 20 min
  563. Bit rate                                 : 30.7 kb/s
  564. Count of elements                        : 3276
  565. Stream size                              : 30.8 MiB (0%)
  566. Language                                 : Finnish
  567. Default                                  : No
  568. Forced                                   : No
  569. Original source medium                   : Blu-ray
  570. Text #16
  571. ID                                       : 31
  572. ID in the original source medium         : 4782 (0x12AE)
  573. Format                                   : PGS
  574. Muxing mode                              : zlib
  575. Codec ID                                 : S_HDMV/PGS
  576. Codec ID/Info                            : Picture based subtitle format used on BDs/HD-DVDs
  577. Duration                                 : 2 h 20 min
  578. Bit rate                                 : 29.7 kb/s
  579. Count of elements                        : 3710
  580. Stream size                              : 29.8 MiB (0%)
  581. Language                                 : Norwegian
  582. Default                                  : No
  583. Forced                                   : No
  584. Original source medium                   : Blu-ray
  585. Text #17
  586. ID                                       : 32
  587. ID in the original source medium         : 4783 (0x12AF)
  588. Format                                   : PGS
  589. Muxing mode                              : zlib
  590. Codec ID                                 : S_HDMV/PGS
  591. Codec ID/Info                            : Picture based subtitle format used on BDs/HD-DVDs
  592. Duration                                 : 2 h 16 min
  593. Bit rate                                 : 35.2 kb/s
  594. Count of elements                        : 3730
  595. Stream size                              : 34.3 MiB (0%)
  596. Language                                 : Polish
  597. Default                                  : No
  598. Forced                                   : No
  599. Original source medium                   : Blu-ray
  600. Text #18
  601. ID                                       : 33
  602. ID in the original source medium         : 4784 (0x12B0)
  603. Format                                   : PGS
  604. Muxing mode                              : zlib
  605. Codec ID                                 : S_HDMV/PGS
  606. Codec ID/Info                            : Picture based subtitle format used on BDs/HD-DVDs
  607. Duration                                 : 2 h 20 min
  608. Bit rate                                 : 33.0 kb/s
  609. Count of elements                        : 3408
  610. Stream size                              : 33.1 MiB (0%)
  611. Language                                 : Swedish
  612. Default                                  : No
  613. Forced                                   : No
  614. Original source medium                   : Blu-ray
  615. Text #19
  616. ID                                       : 34
  617. ID in the original source medium         : 4785 (0x12B1)
  618. Format                                   : PGS
  619. Muxing mode                              : zlib
  620. Codec ID                                 : S_HDMV/PGS
  621. Codec ID/Info                            : Picture based subtitle format used on BDs/HD-DVDs
  622. Duration                                 : 2 h 0 min
  623. Bit rate                                 : 53 b/s
  624. Count of elements                        : 10
  625. Stream size                              : 47.5 KiB (0%)
  626. Title                                    : FORCED
  627. Language                                 : French
  628. Default                                  : No
  629. Forced                                   : No
  630. Original source medium                   : Blu-ray
  631. Text #20
  632. ID                                       : 35
  633. ID in the original source medium         : 4786 (0x12B2)
  634. Format                                   : PGS
  635. Muxing mode                              : zlib
  636. Codec ID                                 : S_HDMV/PGS
  637. Codec ID/Info                            : Picture based subtitle format used on BDs/HD-DVDs
  638. Duration                                 : 1 h 29 min
  639. Bit rate                                 : 161 b/s
  640. Count of elements                        : 12
  641. Stream size                              : 106 KiB (0%)
  642. Title                                    : FORCED
  643. Language                                 : German
  644. Default                                  : No
  645. Forced                                   : No
  646. Original source medium                   : Blu-ray
  647. Text #21
  648. ID                                       : 36
  649. ID in the original source medium         : 4787 (0x12B3)
  650. Format                                   : PGS
  651. Muxing mode                              : zlib
  652. Codec ID                                 : S_HDMV/PGS
  653. Codec ID/Info                            : Picture based subtitle format used on BDs/HD-DVDs
  654. Duration                                 : 2 h 10 min
  655. Bit rate                                 : 161 b/s
  656. Count of elements                        : 22
  657. Stream size                              : 154 KiB (0%)
  658. Title                                    : FORCED
  659. Language                                 : Italian
  660. Default                                  : No
  661. Forced                                   : No
  662. Original source medium                   : Blu-ray
  663. Text #22
  664. ID                                       : 37
  665. ID in the original source medium         : 4788 (0x12B4)
  666. Format                                   : PGS
  667. Muxing mode                              : zlib
  668. Codec ID                                 : S_HDMV/PGS
  669. Codec ID/Info                            : Picture based subtitle format used on BDs/HD-DVDs
  670. Duration                                 : 2 h 10 min
  671. Bit rate                                 : 93 b/s
  672. Count of elements                        : 14
  673. Stream size                              : 89.2 KiB (0%)
  674. Title                                    : FORCED
  675. Language                                 : Spanish
  676. Default                                  : No
  677. Forced                                   : No
  678. Original source medium                   : Blu-ray
  679. Text #23
  680. ID                                       : 38
  681. ID in the original source medium         : 4789 (0x12B5)
  682. Format                                   : PGS
  683. Muxing mode                              : zlib
  684. Codec ID                                 : S_HDMV/PGS
  685. Codec ID/Info                            : Picture based subtitle format used on BDs/HD-DVDs
  686. Duration                                 : 2 h 10 min
  687. Bit rate                                 : 242 b/s
  688. Count of elements                        : 36
  689. Stream size                              : 233 KiB (0%)
  690. Title                                    : FORCED
  691. Language                                 : Chinese
  692. Default                                  : No
  693. Forced                                   : No
  694. Original source medium                   : Blu-ray
  695. Text #24
  696. ID                                       : 39
  697. ID in the original source medium         : 4790 (0x12B6)
  698. Format                                   : PGS
  699. Muxing mode                              : zlib
  700. Codec ID                                 : S_HDMV/PGS
  701. Codec ID/Info                            : Picture based subtitle format used on BDs/HD-DVDs
  702. Duration                                 : 2 h 0 min
  703. Bit rate                                 : 128 b/s
  704. Count of elements                        : 14
  705. Stream size                              : 114 KiB (0%)
  706. Title                                    : FORCED
  707. Language                                 : Spanish
  708. Default                                  : No
  709. Forced                                   : No
  710. Original source medium                   : Blu-ray
  711. Text #25
  712. ID                                       : 40
  713. ID in the original source medium         : 4791 (0x12B7)
  714. Format                                   : PGS
  715. Muxing mode                              : zlib
  716. Codec ID                                 : S_HDMV/PGS
  717. Codec ID/Info                            : Picture based subtitle format used on BDs/HD-DVDs
  718. Duration                                 : 16 min 30 s
  719. Bit rate                                 : 159 b/s
  720. Count of elements                        : 4
  721. Stream size                              : 19.3 KiB (0%)
  722. Title                                    : FORCED
  723. Language                                 : Hungarian
  724. Default                                  : No
  725. Forced                                   : No
  726. Original source medium                   : Blu-ray
  727. Text #26
  728. ID                                       : 41
  729. ID in the original source medium         : 4792 (0x12B8)
  730. Format                                   : PGS
  731. Muxing mode                              : zlib
  732. Codec ID                                 : S_HDMV/PGS
  733. Codec ID/Info                            : Picture based subtitle format used on BDs/HD-DVDs
  734. Duration                                 : 2 h 20 min
  735. Bit rate                                 : 44.1 kb/s
  736. Count of elements                        : 3548
  737. Stream size                              : 44.4 MiB (0%)
  738. Title                                    : FORCED
  739. Language                                 : Japanese
  740. Default                                  : No
  741. Forced                                   : No
  742. Original source medium                   : Blu-ray
  743. Text #27
  744. ID                                       : 42
  745. ID in the original source medium         : 4793 (0x12B9)
  746. Format                                   : PGS
  747. Muxing mode                              : zlib
  748. Codec ID                                 : S_HDMV/PGS
  749. Codec ID/Info                            : Picture based subtitle format used on BDs/HD-DVDs
  750. Duration                                 : 2 h 10 min
  751. Bit rate                                 : 372 b/s
  752. Count of elements                        : 58
  753. Stream size                              : 357 KiB (0%)
  754. Title                                    : FORCED
  755. Language                                 : Japanese
  756. Default                                  : No
  757. Forced                                   : No
  758. Original source medium                   : Blu-ray
  759. Menu
  760. 00:00:00.000                             : Chapter 01
  761. 00:04:40.113                             : Chapter 02
  762. 00:06:38.398                             : Chapter 03
  763. 00:10:07.023                             : Chapter 04
  764. 00:13:45.741                             : Chapter 05
  765. 00:17:59.912                             : Chapter 06
  766. 00:23:43.004                             : Chapter 07
  767. 00:29:00.947                             : Chapter 08
  768. 00:33:32.677                             : Chapter 09
  769. 00:38:50.619                             : Chapter 10
  770. 00:41:06.255                             : Chapter 11
  771. 00:42:40.432                             : Chapter 12
  772. 00:46:14.396                             : Chapter 13
  773. 00:48:14.433                             : Chapter 14
  774. 00:51:21.369                             : Chapter 15
  775. 00:57:19.102                             : Chapter 16
  776. 01:00:27.248                             : Chapter 17
  777. 01:05:45.483                             : Chapter 18
  778. 01:07:16.365                             : Chapter 19
  779. 01:11:03.676                             : Chapter 20
  780. 01:13:53.220                             : Chapter 21
  781. 01:15:55.342                             : Chapter 22
  782. 01:21:07.988                             : Chapter 23
  783. 01:23:58.950                             : Chapter 24
  784. 01:29:25.985                             : Chapter 25
  785. 01:32:10.358                             : Chapter 26
  786. 01:35:36.814                             : Chapter 27
  787. 01:38:28.485                             : Chapter 28
  788. 01:40:38.365                             : Chapter 29
  789. 01:47:23.061                             : Chapter 30
  790. 01:50:45.221                             : Chapter 31
  791. 01:54:30.989                             : Chapter 32
  792. 02:00:35.228                             : Chapter 33
  793. 02:04:09.316                             : Chapter 34
  794. 02:05:51.085                             : Chapter 35
  795. 02:08:25.823                             : Chapter 36
  796. 02:10:13.514                             : Chapter 37
  797. 02:12:56.134                             : Chapter 38
  798. 02:16:27.721                             : Chapter 39
  799. 02:18:07.570                             : Chapter 40
复制代码




                                       
                                       

                                       
                                       
                                       




回复

使用道具 举报

蓝光币
10
发表于 6 天前 | 显示全部楼层
这是一部伟大的电影,楼主辛苦了~
回复 支持 反对

使用道具 举报

蓝光币
0
发表于 5 天前 | 显示全部楼层
经典之作,初中第一次看,感受颇深,后来反复看了好几次,每次感触都不一样。
回复 支持 反对

使用道具 举报

蓝光币
7
发表于 4 天前 | 显示全部楼层
楼主发贴辛苦了,谢谢楼主分享!我觉得蓝光电影网是注册对了!
回复 支持 反对

使用道具 举报

蓝光币
380
发表于 3 天前 | 显示全部楼层
感谢楼主分享remux资源
回复 支持 反对

使用道具 举报

蓝光币
5
发表于 昨天 22:39 | 显示全部楼层
楼主发贴辛苦了,谢谢楼主分享!我觉得蓝光电影网是注册对了!
回复 支持 反对

使用道具 举报

蓝光币
7
发表于 10 秒前 | 显示全部楼层
楼主发贴辛苦了,谢谢楼主分享!我觉得蓝光电影网是注册对了!
回复 支持 反对

使用道具 举报

懒得打字嘛,点击右侧快捷回复 【右侧内容,后台自定义】
您需要登录后才可以回帖 登录 | 立即加入

本版积分规则

Archiver|小黑屋| 蓝光电影网 |网站地图

Copyright © 2021 Comsenz Inc. Powered by 蓝光电影网

蓝光电影网

本站内容由用户自主分享和转载自互联网,转载目的在于传递更多信息,并不代表本网赞同其观点和对其真实性负责。

如有侵权、违反国家法律政策行为,请联系我们,我们会第一时间及时清除和处理!

举报反馈邮箱:[email protected]

快速回复 返回顶部 返回列表