找回密码

蓝光电影网

查看: 234|回复: 1

[2160p] 石中剑 The.Sword.In.the.Stone.1963.2160p.WEB-DL.DD5.1.DV.MP4.x265-FLUX 13.97GB

[复制链接]
蓝光币
382
发表于 6 天前 | 显示全部楼层 |阅读模式
[img][/img]

◎译  名 石中剑/La espada en la piedra
◎片  名 The Sword in the Stone
◎年  代 1963
◎产  地 美国
◎类  别 动画 / 家庭 / 荒诞
◎语  言 英语
◎上映日期 1963-12-25(美国)
◎豆瓣评分 8.0/10 from 4585 users
◎豆瓣链接 https://movie.douban.com/subject/1306873/
◎片  长 80分钟
◎导  演 沃夫冈·雷瑟曼 Wolfgang Reitherman
◎编  剧 比尔·皮特 Bill Peet / T·H·怀特 T.H. White
◎主  演 塞巴斯蒂安·卡伯特 Sebastian Cabot
       卡尔·斯温森 Karl Swenson
       瑞奇·索伦森 Rickie Sorensen
       玛莎·温特沃思 Martha Wentworth
       瑟尔·莱文斯克洛福特 Thurl Ravenscroft
       阿兰·纳皮尔 Alan Napier
       James MacDonald James MacDonald
       芭芭拉·乔·艾伦 Barbara Jo Allen
       诺曼·阿尔登 Norman Alden
       朱尼乌斯·马修斯 Junius Matthews
◎标  签 动画 | 美国 | Disney | 迪斯尼 | 迪士尼 | 典范 | 石中剑 | 美国动画
◎简  介


  当小华特从屋顶掉进了梅林法师的家中时,就已必定他传奇的命运了。奇异的梅林法师是若何教导华特的呢?不谨慎撞进女巫家的华特会不会有危险呢?伦敦的交锋大赛就要起头了,谁有才能拔起石头中的剑便能成为国王,这个消息传遍全国,一些军人也希望自己有一天能成为国王,而纷纷到广场拔剑。对小华特而言,他的奇遇才刚起头,他垂手可得的将石中剑拔起,因之成为往后的亚瑟王。
◎获奖情况
  第36届奥斯卡金像奖 ?(1964)
  最好改编配乐(提名) 乔治·布伦斯
  1. Video
  2. ID                                       : 1
  3. Format                                   : HEVC
  4. Format/Info                              : High Efficiency Video Coding
  5. Format profile                           : Main [email protected]@High
  6. HDR format                               : Dolby Vision, Version 1.0, dvhe.05.06, BL+RPU
  7. Codec ID                                 : dvhe
  8. Codec ID/Info                            : High Efficiency Video Coding with Dolby Vision
  9. Duration                                 : 1 h 19 min
  10. Bit rate                                 : 24.7 Mb/s
  11. Width                                    : 3 776 pixels
  12. Original width                           : 3 772 pixels
  13. Height                                   : 2 160 pixels
  14. Display aspect ratio                     : 16:9
  15. Original display aspect ratio            : 16:9
  16. Frame rate mode                          : Constant
  17. Frame rate                               : 23.976 (23976/1000/189150) FPS
  18. Color space                              : YUV
  19. Chroma subsampling                       : 4:2:0
  20. Bit depth                                : 10 bits
  21. Bits/(Pixel*Frame)                       : 0.127
  22. Stream size                              : 13.8 GiB (98%)
  23. Default                                  : Yes
  24. Alternate group                          : 1
  25. Encoded date                             : UTC 2021-09-04 16:20:04
  26. Tagged date                              : UTC 2021-09-04 16:22:44
  27. Codec configuration box                  : hvcC+dvcC

  28. Audio
  29. ID                                       : 2
  30. Format                                   : AC-3
  31. Format/Info                              : Audio Coding 3
  32. Commercial name                          : Dolby Digital
  33. Codec ID                                 : ac-3
  34. Duration                                 : 1 h 19 min
  35. Bit rate mode                            : Constant
  36. Bit rate                                 : 384 kb/s
  37. Maximum bit rate                         : 406 kb/s
  38. Channel(s)                               : 6 channels
  39. Channel layout                           : L R C LFE Ls Rs
  40. Sampling rate                            : 48.0 kHz
  41. Frame rate                               : 31.250 FPS (1536 SPF)
  42. Compression mode                         : Lossy
  43. Stream size                              : 219 MiB (2%)
  44. Title                                    : English (US)
  45. Language                                 : English
  46. Service kind                             : Complete Main
  47. Encoded date                             : UTC 2021-09-04 16:18:23
  48. Tagged date                              : UTC 2021-09-04 16:22:44

  49. Text #1
  50. ID                                       : 3
  51. Format                                   : Timed Text
  52. Codec ID                                 : tx3g
  53. Duration                                 : 1 h 19 min
  54. Bit rate mode                            : Variable
  55. Bit rate                                 : 88 b/s
  56. Stream size                              : 51.3 KiB (0%)
  57. Title                                    : English
  58. Language                                 : English
  59. Forced                                   : No
  60. Encoded date                             : UTC 2021-09-04 16:22:42
  61. Tagged date                              : UTC 2021-09-04 16:22:44

  62. Text #2
  63. ID                                       : 4
  64. Format                                   : Timed Text
  65. Codec ID                                 : tx3g
  66. Duration                                 : 1 h 19 min
  67. Bit rate mode                            : Variable
  68. Bit rate                                 : 101 b/s
  69. Stream size                              : 59.0 KiB (0%)
  70. Title                                    : English [CC]
  71. Language                                 : English
  72. Forced                                   : No
  73. Encoded date                             : UTC 2021-09-04 16:22:42
  74. Tagged date                              : UTC 2021-09-04 16:22:44

  75. Text #3
  76. ID                                       : 5
  77. Format                                   : Timed Text
  78. Codec ID                                 : tx3g
  79. Duration                                 : 1 h 19 min
  80. Bit rate mode                            : Variable
  81. Bit rate                                 : 64 b/s
  82. Stream size                              : 37.2 KiB (0%)
  83. Title                                    : 中文(繁體)
  84. Language                                 : Chinese
  85. Forced                                   : No
  86. Encoded date                             : UTC 2021-09-04 16:22:42
  87. Tagged date                              : UTC 2021-09-04 16:22:44

  88. Text #4
  89. ID                                       : 6
  90. Format                                   : Timed Text
  91. Codec ID                                 : tx3g
  92. Duration                                 : 1 h 19 min
  93. Bit rate mode                            : Variable
  94. Bit rate                                 : 63 b/s
  95. Stream size                              : 37.0 KiB (0%)
  96. Title                                    : Espa?ol (Latinoamérica)
  97. Language                                 : Spanish
  98. Forced                                   : No
  99. Encoded date                             : UTC 2021-09-04 16:22:43
  100. Tagged date                              : UTC 2021-09-04 16:22:44

  101. Text #5
  102. ID                                       : 7
  103. Format                                   : Timed Text
  104. Codec ID                                 : tx3g
  105. Duration                                 : 1 h 19 min
  106. Bit rate mode                            : Variable
  107. Bit rate                                 : 71 b/s
  108. Stream size                              : 41.5 KiB (0%)
  109. Title                                    : Fran?ais (France)
  110. Language                                 : French
  111. Forced                                   : No
  112. Encoded date                             : UTC 2021-09-04 16:22:43
  113. Tagged date                              : UTC 2021-09-04 16:22:44

  114. Text #6
  115. ID                                       : 8
  116. Format                                   : Timed Text
  117. Codec ID                                 : tx3g
  118. Duration                                 : 1 h 19 min
  119. Bit rate mode                            : Variable
  120. Bit rate                                 : 69 b/s
  121. Stream size                              : 40.5 KiB (0%)
  122. Title                                    : Bahasa Indonesia
  123. Language                                 : Indonesian
  124. Forced                                   : No
  125. Encoded date                             : UTC 2021-09-04 16:22:43
  126. Tagged date                              : UTC 2021-09-04 16:22:44

  127. Text #7
  128. ID                                       : 9
  129. Format                                   : Timed Text
  130. Codec ID                                 : tx3g
  131. Duration                                 : 1 h 19 min
  132. Bit rate mode                            : Variable
  133. Bit rate                                 : 72 b/s
  134. Stream size                              : 41.9 KiB (0%)
  135. Title                                    : Bahasa Melayu (Malaysia)
  136. Language                                 : Malay
  137. Forced                                   : No
  138. Encoded date                             : UTC 2021-09-04 16:22:43
  139. Tagged date                              : UTC 2021-09-04 16:22:44

  140. Text #8
  141. ID                                       : 10
  142. Format                                   : Timed Text
  143. Codec ID                                 : tx3g
  144. Duration                                 : 1 h 19 min
  145. Bit rate mode                            : Variable
  146. Bit rate                                 : 112 b/s
  147. Stream size                              : 65.4 KiB (0%)
  148. Title                                    : Русский
  149. Language                                 : Russian
  150. Forced                                   : No
  151. Encoded date                             : UTC 2021-09-04 16:22:43
  152. Tagged date                              : UTC 2021-09-04 16:22:44

  153. Text #9
  154. ID                                       : 11
  155. Format                                   : Timed Text
  156. Codec ID                                 : tx3g
  157. Duration                                 : 1 h 19 min
  158. Bit rate mode                            : Variable
  159. Bit rate                                 : 132 b/s
  160. Stream size                              : 76.7 KiB (0%)
  161. Title                                    : ???
  162. Language                                 : Thai
  163. Forced                                   : No
  164. Encoded date                             : UTC 2021-09-04 16:22:43
  165. Tagged date                              : UTC 2021-09-04 16:22:44

  166. Text #10
  167. ID                                       : 12
  168. Format                                   : Timed Text
  169. Codec ID                                 : tx3g
  170. Duration                                 : 1 h 19 min
  171. Bit rate mode                            : Variable
  172. Bit rate                                 : 70 b/s
  173. Stream size                              : 40.9 KiB (0%)
  174. Title                                    : Türk?e
  175. Language                                 : Turkish
  176. Forced                                   : No
  177. Encoded date                             : UTC 2021-09-04 16:22:44
  178. Tagged date                              : UTC 2021-09-04 16:22:44

  179. Menu
  180. 00:00:00.000                             : Chapter 1
  181. 00:01:41.000                             : Chapter 2
  182. 00:08:43.000                             : Chapter 3
  183. 00:12:48.000                             : Chapter 4
  184. 00:17:01.000                             : Chapter 5
  185. 00:22:09.000                             : Chapter 6
  186. 00:26:23.000                             : Chapter 7
  187. 00:30:27.000                             : Chapter 8
  188. 00:38:06.000                             : Chapter 9
  189. 00:40:08.000                             : Chapter 10
  190. 00:49:13.000                             : Chapter 11
  191. 00:54:53.000                             : Chapter 12
  192. 00:56:48.000                             : Chapter 13
  193. 00:59:48.000                             : Chapter 14
  194. 01:04:12.000                             : Chapter 15
  195. 01:10:18.000                             : Chapter 16
  196. 01:15:38.000                             : Chapter 17
复制代码




                                       
                                       

                                       
                                       
                                       




回复

使用道具 举报

蓝光币
214
发表于 5 天前 | 显示全部楼层
建议同时带个好点的字幕~这样就完美了~
回复 支持 反对

使用道具 举报

懒得打字嘛,点击右侧快捷回复 【右侧内容,后台自定义】
您需要登录后才可以回帖 登录 | 立即加入

本版积分规则

Archiver|小黑屋| 蓝光电影网 |网站地图

Copyright © 2021 Comsenz Inc. Powered by 蓝光电影网

蓝光电影网

本站内容由用户自主分享和转载自互联网,转载目的在于传递更多信息,并不代表本网赞同其观点和对其真实性负责。

如有侵权、违反国家法律政策行为,请联系我们,我们会第一时间及时清除和处理!

举报反馈邮箱:[email protected]

快速回复 返回顶部 返回列表