找回密码

蓝光电影网

查看: 185|回复: 4

[2160p] 避难所就位 Shelter.in.Place.2021.2160p.WEB-DL.x265.10bit.SDR.DD5.1-NOGRP 7.77GB

[复制链接]
蓝光币
382
发表于 5 天前 | 显示全部楼层 |阅读模式


◎译  名 出亡所就位
◎片  名 Shelter in Place
◎年  代 2020
◎产  地 美国
◎类  别 剧情 / 悬疑 / 惊悚 / 可骇
◎语  言 英语
◎上映日期 2021-09-14(美国)
◎豆瓣评分 /10 from 0 users
◎豆瓣链接 https://movie.douban.com/subject/35296497/
◎导  演 马丁·康纳 Martin Connor / 克里斯·贝洛迪 Chris Beyrooty / 康纳·马丁 Connor Martin
◎编  剧 马丁·康纳 Martin Connor / 克里斯·贝洛迪 Chris Beyrooty / 康纳·马丁 Connor Martin
◎主  演 布伦丹·海因斯 Brendan Hines
       塔蒂安娜·马尔贾诺维奇 Tatjana Marjanovic
       凯文·丹尼尔斯 Kevin Daniels
       杰伊·雷诺兹 Jey Reynolds
       奥拉·卡明斯卡 Ola Kaminska
◎标  签 惊悚悬疑
◎简  介


  当全球大风行的病毒限制了观光的能够性时,一对蜜月情侣被困在好莱坞罗斯福酒店,那边有两名员工在顾问他们。当严严重势在强迫封锁中升级时,很明显,在这家历史悠久的酒店里,人们担忧的不但仅是机舱热。
  1. Video
  2. ID                                       : 1
  3. Format                                   : HEVC
  4. Format/Info                              : High Efficiency Video Coding
  5. Format profile                           : Main [email protected]@High
  6. Codec ID                                 : V_MPEGH/ISO/HEVC
  7. Duration                                 : 1 h 29 min
  8. Bit rate                                 : 12.1 Mb/s
  9. Width                                    : 3 840 pixels
  10. Height                                   : 1 608 pixels
  11. Display aspect ratio                     : 2.40:1
  12. Frame rate mode                          : Constant
  13. Frame rate                               : 23.976 FPS
  14. Color space                              : YUV
  15. Chroma subsampling                       : 4:2:0
  16. Bit depth                                : 10 bits
  17. Bits/(Pixel*Frame)                       : 0.082
  18. Stream size                              : 7.53 GiB (97%)
  19. Language                                 : English
  20. Default                                  : Yes
  21. Forced                                   : No
  22. Color range                              : Limited
  23. Color primaries                          : BT.709
  24. Transfer characteristics                 : BT.709
  25. Matrix coefficients                      : BT.709

  26. Audio
  27. ID                                       : 2
  28. Format                                   : AC-3
  29. Format/Info                              : Audio Coding 3
  30. Commercial name                          : Dolby Digital
  31. Codec ID                                 : A_AC3
  32. Duration                                 : 1 h 29 min
  33. Bit rate mode                            : Constant
  34. Bit rate                                 : 384 kb/s
  35. Channel(s)                               : 6 channels
  36. Channel layout                           : L R C LFE Ls Rs
  37. Sampling rate                            : 48.0 kHz
  38. Frame rate                               : 31.250 FPS (1536 SPF)
  39. Compression mode                         : Lossy
  40. Stream size                              : 245 MiB (3%)
  41. Title                                    : English
  42. Language                                 : English
  43. Service kind                             : Complete Main
  44. Default                                  : No
  45. Forced                                   : No

  46. Text
  47. ID                                       : 3
  48. Format                                   : UTF-8
  49. Codec ID                                 : S_TEXT/UTF8
  50. Codec ID/Info                            : UTF-8 Plain Text
  51. Duration                                 : 1 h 24 min
  52. Bit rate                                 : 39 b/s
  53. Count of elements                        : 902
  54. Stream size                              : 24.1 KiB (0%)
  55. Language                                 : English
  56. Default                                  : Yes
  57. Forced                                   : No
复制代码





                                       
                                       

                                       
                                       
                                       




回复

使用道具 举报

蓝光币
1
发表于 5 天前 | 显示全部楼层
很多年没关注高清了,继续走起
回复 支持 反对

使用道具 举报

蓝光币
410
发表于 5 天前 | 显示全部楼层
不错,收下了。
回复 支持 反对

使用道具 举报

蓝光币
24
发表于 4 天前 | 显示全部楼层

其实我一直觉得楼主的品味不错!呵呵!蓝光电影网太棒了!
回复 支持 反对

使用道具 举报

蓝光币
2
发表于 4 天前 | 显示全部楼层

既然你诚信诚意的推荐了,那我就勉为其难的看看吧!蓝光电影网不走平凡路。
回复 支持 反对

使用道具 举报

懒得打字嘛,点击右侧快捷回复 【右侧内容,后台自定义】
您需要登录后才可以回帖 登录 | 立即加入

本版积分规则

Archiver|小黑屋| 蓝光电影网 |网站地图

Copyright © 2021 Comsenz Inc. Powered by 蓝光电影网

蓝光电影网

本站内容由用户自主分享和转载自互联网,转载目的在于传递更多信息,并不代表本网赞同其观点和对其真实性负责。

如有侵权、违反国家法律政策行为,请联系我们,我们会第一时间及时清除和处理!

举报反馈邮箱:[email protected]

快速回复 返回顶部 返回列表