找回密码

蓝光电影网

查看: 77|回复: 0

[UHD.HEVC] 宝贝老板2/宝贝老板:家大业大 The.Boss.Baby.Family.Business.2021.2160p.BluRay.REMUX.HEVC.DTS-HD.MA.TrueHD.7.1.Atmos-FGT 42.88GB

[复制链接]
蓝光币
382
发表于 4 天前 | 显示全部楼层 |阅读模式


◎译  名 宝贝老板2/宝贝老板:家大业大(台)/宝贝老板2:家属企业/波士BB 2世祖(港)
◎片  名 The Boss Baby: Family Business
◎年  代 2021
◎产  地 美国
◎类  别 笑剧 / 动画
◎语  言 英语
◎上映日期 2021-07-02(美国/美国收集)
◎豆瓣评分 6.7/10 from 5845 users
◎豆瓣链接 https://movie.douban.com/subject/27056396/
◎片  长 107分钟
◎导  演 汤姆·麦格拉思 Tom McGrath
◎编  剧 玛拉·弗雷齐 Marla Frazee / 迈克尔·麦库勒斯 Michael McCullers
◎主  演 亚历克·鲍德温 Alec Baldwin
       詹姆斯·麦斯登 James Marsden
       艾米·塞德丽丝 Amy Sedaris
       阿丽亚娜·格林布拉特 Ariana Greenblatt
       杰夫·高布伦 Jeff Goldblum
       伊娃·朗格利亚 Eva Longoria
       詹姆斯·麦格拉思 James McGrath
       吉米·坎摩尔 Jimmy Kimmel
       丽莎·库卓 Lisa Kudrow
       拉斐尔·亚历杭德罗 Raphael Alejandro
       塞雷妮蒂·瑞恩·布朗 Serenity Reign Brown
       大卫·索伦 David Soren
       詹姆斯·雷恩 James Ryan
       戴维·P·史姑娘 David P. Smith
       汤姆·麦格拉思 Tom McGrath
       沃尔特·道恩 Walt Dohrn
       阿普里尔·劳伦斯 April Lawrence
       迈尔斯·克里斯托弗·巴克什 Miles Christopher Bakshi
       琳娜·泽格 Lynnanne Zager
◎标  签 动画 | 笑剧 | 美国 | 搞笑 | 小宝宝 | 兄弟 | 萌 | 卖萌
◎简  介


  设定在首部多年以后,邓普顿兄弟蒂姆和泰德长大成人,两人关系也逐步冷淡。蒂姆已婚已育,泰德是对冲基金的首席履行官,两人将由于一个有着先辈方式和积极进取态度的新任“宝贝老板”重新联系在一路,激起出新的家属企业。
  
  蒂姆和有“超级妈妈”之称的妻子卡罗尔及异常聪明的7岁女儿塔比莎、刚诞生超级心爱的婴儿蒂娜住在郊区,塔比莎是一一切威望的教育机构的尖子生,将叔叔泰德视为偶像,想成为他那样的人,但蒂姆担忧她过分勤奋,致使没法过一个一般的童年。当蒂娜作为宝贝团体最高机密奸细的实在身份曝光,目标是为了揭开塔比莎黉舍及其奥秘开创人阿姆斯特朗博士背后的黑暗奥秘时,邓普顿兄弟将以一种意想不到的方式重聚,两人重新审阅家庭的意义,大白什么才是最重要的。
  1. Video
  2. ID                                       : 1
  3. ID in the original source medium         : 4113 (0x1011)
  4. Format                                   : HEVC
  5. Format/Info                              : High Efficiency Video Coding
  6. Format profile                           : Main [email protected]@High
  7. HDR format                               : Dolby Vision, Version 1.0, dvhe.07.06, BL+EL+RPU, Blu-ray compatible / SMPTE ST 2086, HDR10 compatible
  8. Codec ID                                 : V_MPEGH/ISO/HEVC
  9. Duration                                 : 1 h 47 min
  10. Bit rate                                 : 46.8 Mb/s
  11. Width                                    : 3 840 pixels
  12. Height                                   : 2 160 pixels
  13. Display aspect ratio                     : 16:9
  14. Frame rate mode                          : Constant
  15. Frame rate                               : 23.976 (24000/1001/189150) FPS
  16. Color space                              : YUV
  17. Chroma subsampling                       : 4:2:0 (Type 2)
  18. Bit depth                                : 10 bits
  19. Bits/(Pixel*Frame)                       : 0.235
  20. Stream size                              : 35.1 GiB (82%)
  21. Language                                 : English
  22. Default                                  : No
  23. Forced                                   : No
  24. Color range                              : Limited
  25. Color primaries                          : BT.2020
  26. Transfer characteristics                 : PQ
  27. Matrix coefficients                      : BT.2020 non-constant
  28. Mastering display color primaries        : Display P3
  29. Mastering display luminance              : min: 0.0010 cd/m2, max: 1000 cd/m2
  30. Maximum Content Light Level              : 1000 cd/m2
  31. Maximum Frame-Average Light Level        : 1000 cd/m2
  32. Original source medium                   : Blu-ray

  33. Audio #1
  34. ID                                       : 2
  35. ID in the original source medium         : 4352 (0x1100)
  36. Format                                   : MLP FBA 16-ch
  37. Format/Info                              : Meridian Lossless Packing FBA with 16-channel presentation
  38. Commercial name                          : Dolby TrueHD with Dolby Atmos
  39. Codec ID                                 : A_TRUEHD
  40. Duration                                 : 1 h 47 min
  41. Bit rate mode                            : Variable
  42. Bit rate                                 : 3 200 kb/s
  43. Maximum bit rate                         : 5 106 kb/s
  44. Channel(s)                               : 8 channels
  45. Channel layout                           : L R C LFE Ls Rs Lb Rb
  46. Sampling rate                            : 48.0 kHz
  47. Frame rate                               : 1 200.000 FPS (40 SPF)
  48. Bit depth                                : 24 bits
  49. Compression mode                         : Lossless
  50. Stream size                              : 2.40 GiB (6%)
  51. Title                                    : TrueHD 7.1 Atmos
  52. Language                                 : English
  53. Default                                  : Yes
  54. Forced                                   : No
  55. Original source medium                   : Blu-ray
  56. Number of dynamic objects                : 11
  57. Bed channel count                        : 1 channel
  58. Bed channel configuration                : LFE

  59. Audio #2
  60. ID                                       : 3
  61. Format                                   : DTS XLL
  62. Format/Info                              : Digital Theater Systems
  63. Commercial name                          : DTS-HD Master Audio
  64. Codec ID                                 : A_DTS
  65. Duration                                 : 1 h 47 min
  66. Bit rate mode                            : Variable
  67. Bit rate                                 : 4 574 kb/s
  68. Channel(s)                               : 8 channels
  69. Channel layout                           : C L R LFE Lb Rb Lss Rss
  70. Sampling rate                            : 48.0 kHz
  71. Frame rate                               : 93.750 FPS (512 SPF)
  72. Bit depth                                : 24 bits
  73. Compression mode                         : Lossless
  74. Stream size                              : 3.43 GiB (8%)
  75. Title                                    : DTS-HD MA 7.1
  76. Language                                 : English
  77. Default                                  : No
  78. Forced                                   : No

  79. Audio #3
  80. ID                                       : 4
  81. ID in the original source medium         : 4352 (0x1100)
  82. Format                                   : AC-3
  83. Format/Info                              : Audio Coding 3
  84. Commercial name                          : Dolby Digital
  85. Codec ID                                 : A_AC3
  86. Duration                                 : 1 h 47 min
  87. Bit rate mode                            : Constant
  88. Bit rate                                 : 448 kb/s
  89. Channel(s)                               : 6 channels
  90. Channel layout                           : L R C LFE Ls Rs
  91. Sampling rate                            : 48.0 kHz
  92. Frame rate                               : 31.250 FPS (1536 SPF)
  93. Compression mode                         : Lossy
  94. Stream size                              : 344 MiB (1%)
  95. Title                                    : DD 5.1
  96. Language                                 : English
  97. Service kind                             : Complete Main
  98. Default                                  : No
  99. Forced                                   : No
  100. Original source medium                   : Blu-ray

  101. Audio #4
  102. ID                                       : 5
  103. Format                                   : E-AC-3
  104. Format/Info                              : Enhanced AC-3
  105. Commercial name                          : Dolby Digital Plus
  106. Format profile                           : Blu-ray Disc
  107. Codec ID                                 : A_EAC3
  108. Duration                                 : 1 h 47 min
  109. Bit rate mode                            : Constant
  110. Bit rate                                 : 768 kb/s
  111. Channel(s)                               : 8 channels
  112. Channel layout                           : L R C LFE Ls Rs Lb Rb
  113. Sampling rate                            : 48.0 kHz
  114. Frame rate                               : 31.250 FPS (1536 SPF)
  115. Compression mode                         : Lossy
  116. Stream size                              : 589 MiB (1%)
  117. Title                                    : DDP 7.1
  118. Language                                 : Spanish
  119. Service kind                             : Complete Main
  120. Default                                  : No
  121. Forced                                   : No

  122. Audio #5
  123. ID                                       : 6
  124. ID in the original source medium         : 4353 (0x1101)
  125. Format                                   : AC-3
  126. Format/Info                              : Audio Coding 3
  127. Commercial name                          : Dolby Digital
  128. Codec ID                                 : A_AC3
  129. Duration                                 : 1 h 47 min
  130. Bit rate mode                            : Constant
  131. Bit rate                                 : 448 kb/s
  132. Channel(s)                               : 6 channels
  133. Channel layout                           : L R C LFE Ls Rs
  134. Sampling rate                            : 48.0 kHz
  135. Frame rate                               : 31.250 FPS (1536 SPF)
  136. Compression mode                         : Lossy
  137. Stream size                              : 344 MiB (1%)
  138. Title                                    : DD 5.1
  139. Language                                 : Spanish
  140. Service kind                             : Complete Main
  141. Default                                  : No
  142. Forced                                   : No
  143. Original source medium                   : Blu-ray

  144. Audio #6
  145. ID                                       : 7
  146. ID in the original source medium         : 4354 (0x1102)
  147. Format                                   : AC-3
  148. Format/Info                              : Audio Coding 3
  149. Commercial name                          : Dolby Digital
  150. Codec ID                                 : A_AC3
  151. Duration                                 : 1 h 47 min
  152. Bit rate mode                            : Constant
  153. Bit rate                                 : 640 kb/s
  154. Channel(s)                               : 6 channels
  155. Channel layout                           : L R C LFE Ls Rs
  156. Sampling rate                            : 48.0 kHz
  157. Frame rate                               : 31.250 FPS (1536 SPF)
  158. Compression mode                         : Lossy
  159. Stream size                              : 491 MiB (1%)
  160. Title                                    : DD 5.1
  161. Language                                 : French
  162. Service kind                             : Complete Main
  163. Default                                  : No
  164. Forced                                   : No
  165. Original source medium                   : Blu-ray

  166. Audio #7
  167. ID                                       : 8
  168. ID in the original source medium         : 4355 (0x1103)
  169. Format                                   : AC-3
  170. Format/Info                              : Audio Coding 3
  171. Commercial name                          : Dolby Digital
  172. Codec ID                                 : A_AC3
  173. Duration                                 : 1 h 47 min
  174. Bit rate mode                            : Constant
  175. Bit rate                                 : 192 kb/s
  176. Channel(s)                               : 2 channels
  177. Channel layout                           : L R
  178. Sampling rate                            : 48.0 kHz
  179. Frame rate                               : 31.250 FPS (1536 SPF)
  180. Compression mode                         : Lossy
  181. Stream size                              : 147 MiB (0%)
  182. Title                                    : DD 2.0
  183. Language                                 : English
  184. Service kind                             : Complete Main
  185. Default                                  : No
  186. Forced                                   : No
  187. Original source medium                   : Blu-ray

  188. Text #1
  189. ID                                       : 9
  190. Format                                   : UTF-8
  191. Codec ID                                 : S_TEXT/UTF8
  192. Codec ID/Info                            : UTF-8 Plain Text
  193. Duration                                 : 1 h 40 min
  194. Bit rate                                 : 82 b/s
  195. Count of elements                        : 2173
  196. Stream size                              : 61.1 KiB (0%)
  197. Title                                    : SRT
  198. Language                                 : English
  199. Default                                  : Yes
  200. Forced                                   : No

  201. Text #2
  202. ID                                       : 10
  203. ID in the original source medium         : 4768 (0x12A0)
  204. Format                                   : PGS
  205. Muxing mode                              : zlib
  206. Codec ID                                 : S_HDMV/PGS
  207. Codec ID/Info                            : Picture based subtitle format used on BDs/HD-DVDs
  208. Duration                                 : 1 h 40 min
  209. Bit rate                                 : 68.8 kb/s
  210. Count of elements                        : 4920
  211. Stream size                              : 49.6 MiB (0%)
  212. Language                                 : English
  213. Default                                  : No
  214. Forced                                   : No
  215. Original source medium                   : Blu-ray

  216. Text #3
  217. ID                                       : 11
  218. ID in the original source medium         : 4769 (0x12A1)
  219. Format                                   : PGS
  220. Muxing mode                              : zlib
  221. Codec ID                                 : S_HDMV/PGS
  222. Codec ID/Info                            : Picture based subtitle format used on BDs/HD-DVDs
  223. Duration                                 : 1 h 46 min
  224. Bit rate                                 : 51.2 kb/s
  225. Count of elements                        : 4186
  226. Stream size                              : 38.9 MiB (0%)
  227. Language                                 : Spanish
  228. Default                                  : No
  229. Forced                                   : No
  230. Original source medium                   : Blu-ray

  231. Text #4
  232. ID                                       : 12
  233. ID in the original source medium         : 4770 (0x12A2)
  234. Format                                   : PGS
  235. Muxing mode                              : zlib
  236. Codec ID                                 : S_HDMV/PGS
  237. Codec ID/Info                            : Picture based subtitle format used on BDs/HD-DVDs
  238. Duration                                 : 1 h 46 min
  239. Bit rate                                 : 48.7 kb/s
  240. Count of elements                        : 4170
  241. Stream size                              : 37.0 MiB (0%)
  242. Language                                 : French
  243. Default                                  : No
  244. Forced                                   : No
  245. Original source medium                   : Blu-ray

  246. Text #5
  247. ID                                       : 13
  248. ID in the original source medium         : 4771 (0x12A3)
  249. Format                                   : PGS
  250. Muxing mode                              : zlib
  251. Codec ID                                 : S_HDMV/PGS
  252. Codec ID/Info                            : Picture based subtitle format used on BDs/HD-DVDs
  253. Duration                                 : 1 h 43 min
  254. Bit rate                                 : 1 467 b/s
  255. Count of elements                        : 78
  256. Stream size                              : 1.09 MiB (0%)
  257. Title                                    : FORCED
  258. Language                                 : Spanish
  259. Default                                  : No
  260. Forced                                   : No
  261. Original source medium                   : Blu-ray

  262. Text #6
  263. ID                                       : 14
  264. ID in the original source medium         : 4772 (0x12A4)
  265. Format                                   : PGS
  266. Muxing mode                              : zlib
  267. Codec ID                                 : S_HDMV/PGS
  268. Codec ID/Info                            : Picture based subtitle format used on BDs/HD-DVDs
  269. Duration                                 : 1 h 46 min
  270. Bit rate                                 : 497 b/s
  271. Count of elements                        : 42
  272. Stream size                              : 387 KiB (0%)
  273. Title                                    : FORCED
  274. Language                                 : French
  275. Default                                  : No
  276. Forced                                   : No
  277. Original source medium                   : Blu-ray

  278. Menu
  279. 00:00:00.000                             : Chapter 01
  280. 00:04:18.424                             : Chapter 02
  281. 00:09:50.673                             : Chapter 03
  282. 00:13:43.364                             : Chapter 04
  283. 00:19:51.648                             : Chapter 05
  284. 00:24:54.951                             : Chapter 06
  285. 00:29:12.125                             : Chapter 07
  286. 00:34:22.018                             : Chapter 08
  287. 00:38:09.203                             : Chapter 09
  288. 00:44:36.423                             : Chapter 10
  289. 00:51:25.123                             : Chapter 11
  290. 01:00:47.977                             : Chapter 12
  291. 01:04:54.473                             : Chapter 13
  292. 01:08:07.958                             : Chapter 14
  293. 01:13:27.111                             : Chapter 15
  294. 01:18:38.171                             : Chapter 16
  295. 01:22:44.250                             : Chapter 17
  296. 01:27:13.353                             : Chapter 18
  297. 01:35:06.826                             : Chapter 19
  298. 01:38:13.721                             : Chapter 20
复制代码






                                       
                                       

                                       
                                       
                                       




宝贝老板2/宝贝老板:家大业大 The.Boss.Baby.Family.Business.2021.2160p.BluRay.REMUX.HEVC.DTS-HD.MA.TrueHD.7.1.Atmos-FGT 42.88GB

The.Boss.Baby.Family.Business.2021.2160p.BluRay.REMUX.HEVC.DTS-HD.MA.TrueHD.7.1..torrent

54.31 KB, 下载次数: 14, 下载积分: 蓝光币 -2

回复

使用道具 举报

懒得打字嘛,点击右侧快捷回复 【右侧内容,后台自定义】
您需要登录后才可以回帖 登录 | 立即加入

本版积分规则

Archiver|小黑屋| 蓝光电影网 |网站地图

Copyright © 2021 Comsenz Inc. Powered by 蓝光电影网

蓝光电影网

本站内容由用户自主分享和转载自互联网,转载目的在于传递更多信息,并不代表本网赞同其观点和对其真实性负责。

如有侵权、违反国家法律政策行为,请联系我们,我们会第一时间及时清除和处理!

举报反馈邮箱:[email protected]

快速回复 返回顶部 返回列表