找回密码

蓝光电影网

查看: 102|回复: 1

[2160p] 宝贝老板2/宝贝老板:家大业大 The.Boss.Baby.Family.Business.2021.2160p.BluRay.x264.8bit.SDR.DTS-HD.MA.TrueHD.7.1.Atmos-SWTYBLZ 17.99GB

[复制链接]
蓝光币
382
发表于 3 天前 | 显示全部楼层 |阅读模式


◎译  名 宝贝老板2/宝贝老板:家大业大(台)/宝贝老板2:家属企业/波士BB 2世祖(港)
◎片  名 The Boss Baby: Family Business
◎年  代 2021
◎产  地 美国
◎类  别 笑剧 / 动画
◎语  言 英语
◎上映日期 2021-07-02(美国/美国收集)
◎豆瓣评分 6.7/10 from 5845 users
◎豆瓣链接 https://movie.douban.com/subject/27056396/
◎片  长 107分钟
◎导  演 汤姆·麦格拉思 Tom McGrath
◎编  剧 玛拉·弗雷齐 Marla Frazee / 迈克尔·麦库勒斯 Michael McCullers
◎主  演 亚历克·鲍德温 Alec Baldwin
       詹姆斯·麦斯登 James Marsden
       艾米·塞德丽丝 Amy Sedaris
       阿丽亚娜·格林布拉特 Ariana Greenblatt
       杰夫·高布伦 Jeff Goldblum
       伊娃·朗格利亚 Eva Longoria
       詹姆斯·麦格拉思 James McGrath
       吉米·坎摩尔 Jimmy Kimmel
       丽莎·库卓 Lisa Kudrow
       拉斐尔·亚历杭德罗 Raphael Alejandro
       塞雷妮蒂·瑞恩·布朗 Serenity Reign Brown
       大卫·索伦 David Soren
       詹姆斯·雷恩 James Ryan
       戴维·P·史姑娘 David P. Smith
       汤姆·麦格拉思 Tom McGrath
       沃尔特·道恩 Walt Dohrn
       阿普里尔·劳伦斯 April Lawrence
       迈尔斯·克里斯托弗·巴克什 Miles Christopher Bakshi
       琳娜·泽格 Lynnanne Zager
◎标  签 动画 | 笑剧 | 美国 | 搞笑 | 小宝宝 | 兄弟 | 萌 | 卖萌
◎简  介


  设定在首部多年以后,邓普顿兄弟蒂姆和泰德长大成人,两人关系也逐步冷淡。蒂姆已婚已育,泰德是对冲基金的首席履行官,两人将由于一个有着先辈方式和积极进取态度的新任“宝贝老板”重新联系在一路,激起出新的家属企业。
  
  蒂姆和有“超级妈妈”之称的妻子卡罗尔及异常聪明的7岁女儿塔比莎、刚诞生超级心爱的婴儿蒂娜住在郊区,塔比莎是一一切威望的教育机构的尖子生,将叔叔泰德视为偶像,想成为他那样的人,但蒂姆担忧她过分勤奋,致使没法过一个一般的童年。当蒂娜作为宝贝团体最高机密奸细的实在身份曝光,目标是为了揭开塔比莎黉舍及其奥秘开创人阿姆斯特朗博士背后的黑暗奥秘时,邓普顿兄弟将以一种意想不到的方式重聚,两人重新审阅家庭的意义,大白什么才是最重要的。
  1. Video
  2. ID                                       : 1
  3. Format                                   : AVC
  4. Format/Info                              : Advanced Video Codec
  5. Format profile                           : [email protected]
  6. Format settings                          : CABAC / 5 Ref Frames
  7. Format settings, CABAC                   : Yes
  8. Format settings, Reference frames        : 5 frames
  9. Codec ID                                 : V_MPEG4/ISO/AVC
  10. Duration                                 : 1 h 47 min
  11. Bit rate                                 : 15.5 Mb/s
  12. Width                                    : 3 840 pixels
  13. Height                                   : 1 608 pixels
  14. Display aspect ratio                     : 2.40:1
  15. Frame rate mode                          : Constant
  16. Frame rate                               : 23.976 (24000/1001/189150) FPS
  17. Color space                              : YUV
  18. Chroma subsampling                       : 4:2:0
  19. Bit depth                                : 8 bits
  20. Scan type                                : Progressive
  21. Bits/(Pixel*Frame)                       : 0.105
  22. Stream size                              : 11.6 GiB (65%)
  23. Writing library                          : x264 core 157 r2935 545de2f
  24. Encoding settings                        : cabac=1 / ref=5 / deblock=1:1:1 / analyse=0x3:0x113 / me=umh / subme=10 / psy=1 / psy_rd=0.40:0.00 / mixed_ref=1 / me_range=48 / chroma_me=1 / trellis=2 / 8x8dct=1 / cqm=0 / deadzone=21,11 / fast_pskip=1 / chroma_qp_offset=-2 / threads=48 / lookahead_threads=5 / sliced_threads=0 / nr=0 / decimate=0 / interlaced=0 / bluray_compat=0 / constrained_intra=0 / bframes=5 / b_pyramid=2 / b_adapt=2 / b_bias=0 / direct=3 / weightb=1 / open_gop=0 / weightp=2 / keyint=250 / keyint_min=23 / scenecut=40 / intra_refresh=0 / rc_lookahead=50 / rc=crf / mbtree=1 / crf=16.0 / qcomp=0.60 / qpmin=0 / qpmax=69 / qpstep=4 / ip_ratio=1.40 / aq=1:0.60
  25. Default                                  : Yes
  26. Forced                                   : No

  27. Audio #1
  28. ID                                       : 2
  29. ID in the original source medium         : 4352 (0x1100)
  30. Format                                   : MLP FBA 16-ch
  31. Format/Info                              : Meridian Lossless Packing FBA with 16-channel presentation
  32. Commercial name                          : Dolby TrueHD with Dolby Atmos
  33. Codec ID                                 : A_TRUEHD
  34. Duration                                 : 1 h 47 min
  35. Bit rate mode                            : Variable
  36. Bit rate                                 : 3 200 kb/s
  37. Maximum bit rate                         : 5 106 kb/s
  38. Channel(s)                               : 8 channels
  39. Channel layout                           : L R C LFE Ls Rs Lb Rb
  40. Sampling rate                            : 48.0 kHz
  41. Frame rate                               : 1 200.000 FPS (40 SPF)
  42. Bit depth                                : 24 bits
  43. Compression mode                         : Lossless
  44. Stream size                              : 2.40 GiB (13%)
  45. Title                                    : TrueHD 7.1 Atmos
  46. Language                                 : English
  47. Default                                  : Yes
  48. Forced                                   : No
  49. Original source medium                   : Blu-ray
  50. Number of dynamic objects                : 11
  51. Bed channel count                        : 1 channel
  52. Bed channel configuration                : LFE

  53. Audio #2
  54. ID                                       : 3
  55. Format                                   : DTS XLL
  56. Format/Info                              : Digital Theater Systems
  57. Commercial name                          : DTS-HD Master Audio
  58. Codec ID                                 : A_DTS
  59. Duration                                 : 1 h 47 min
  60. Bit rate mode                            : Variable
  61. Bit rate                                 : 4 574 kb/s
  62. Channel(s)                               : 8 channels
  63. Channel layout                           : C L R LFE Lb Rb Lss Rss
  64. Sampling rate                            : 48.0 kHz
  65. Frame rate                               : 93.750 FPS (512 SPF)
  66. Bit depth                                : 24 bits
  67. Compression mode                         : Lossless
  68. Stream size                              : 3.43 GiB (19%)
  69. Title                                    : DTS-HD MA 7.1
  70. Language                                 : English
  71. Default                                  : No
  72. Forced                                   : No

  73. Audio #3
  74. ID                                       : 4
  75. ID in the original source medium         : 4352 (0x1100)
  76. Format                                   : AC-3
  77. Format/Info                              : Audio Coding 3
  78. Commercial name                          : Dolby Digital
  79. Codec ID                                 : A_AC3
  80. Duration                                 : 1 h 47 min
  81. Bit rate mode                            : Constant
  82. Bit rate                                 : 448 kb/s
  83. Channel(s)                               : 6 channels
  84. Channel layout                           : L R C LFE Ls Rs
  85. Sampling rate                            : 48.0 kHz
  86. Frame rate                               : 31.250 FPS (1536 SPF)
  87. Compression mode                         : Lossy
  88. Stream size                              : 344 MiB (2%)
  89. Title                                    : DD 5.1
  90. Language                                 : English
  91. Service kind                             : Complete Main
  92. Default                                  : No
  93. Forced                                   : No
  94. Original source medium                   : Blu-ray

  95. Text #1
  96. ID                                       : 5
  97. Format                                   : UTF-8
  98. Codec ID                                 : S_TEXT/UTF8
  99. Codec ID/Info                            : UTF-8 Plain Text
  100. Duration                                 : 1 h 40 min
  101. Bit rate                                 : 82 b/s
  102. Count of elements                        : 2173
  103. Stream size                              : 61.1 KiB (0%)
  104. Title                                    : SRT
  105. Language                                 : English
  106. Default                                  : Yes
  107. Forced                                   : No

  108. Text #2
  109. ID                                       : 6
  110. ID in the original source medium         : 4768 (0x12A0)
  111. Format                                   : PGS
  112. Muxing mode                              : zlib
  113. Codec ID                                 : S_HDMV/PGS
  114. Codec ID/Info                            : Picture based subtitle format used on BDs/HD-DVDs
  115. Duration                                 : 1 h 40 min
  116. Bit rate                                 : 68.8 kb/s
  117. Count of elements                        : 4920
  118. Stream size                              : 49.6 MiB (0%)
  119. Language                                 : English
  120. Default                                  : No
  121. Forced                                   : No
  122. Original source medium                   : Blu-ray

  123. Text #3
  124. ID                                       : 7
  125. ID in the original source medium         : 4769 (0x12A1)
  126. Format                                   : PGS
  127. Muxing mode                              : zlib
  128. Codec ID                                 : S_HDMV/PGS
  129. Codec ID/Info                            : Picture based subtitle format used on BDs/HD-DVDs
  130. Duration                                 : 1 h 46 min
  131. Bit rate                                 : 51.2 kb/s
  132. Count of elements                        : 4186
  133. Stream size                              : 38.9 MiB (0%)
  134. Language                                 : Spanish
  135. Default                                  : No
  136. Forced                                   : No
  137. Original source medium                   : Blu-ray

  138. Text #4
  139. ID                                       : 8
  140. ID in the original source medium         : 4770 (0x12A2)
  141. Format                                   : PGS
  142. Muxing mode                              : zlib
  143. Codec ID                                 : S_HDMV/PGS
  144. Codec ID/Info                            : Picture based subtitle format used on BDs/HD-DVDs
  145. Duration                                 : 1 h 46 min
  146. Bit rate                                 : 48.7 kb/s
  147. Count of elements                        : 4170
  148. Stream size                              : 37.0 MiB (0%)
  149. Language                                 : French
  150. Default                                  : No
  151. Forced                                   : No
  152. Original source medium                   : Blu-ray

  153. Menu
  154. 00:00:00.000                             : Chapter 01
  155. 00:04:18.424                             : Chapter 02
  156. 00:09:50.673                             : Chapter 03
  157. 00:13:43.364                             : Chapter 04
  158. 00:19:51.648                             : Chapter 05
  159. 00:24:54.951                             : Chapter 06
  160. 00:29:12.125                             : Chapter 07
  161. 00:34:22.018                             : Chapter 08
  162. 00:38:09.203                             : Chapter 09
  163. 00:44:36.423                             : Chapter 10
  164. 00:51:25.123                             : Chapter 11
  165. 01:00:47.977                             : Chapter 12
  166. 01:04:54.473                             : Chapter 13
  167. 01:08:07.958                             : Chapter 14
  168. 01:13:27.111                             : Chapter 15
  169. 01:18:38.171                             : Chapter 16
  170. 01:22:44.250                             : Chapter 17
  171. 01:27:13.353                             : Chapter 18
  172. 01:35:06.826                             : Chapter 19
  173. 01:38:13.721                             : Chapter 20
复制代码












                                       
                                       

                                       
                                       
                                       




宝贝老板2/宝贝老板:家大业大 The.Boss.Baby.Family.Business.2021.2160p.BluRay.x264.8bit.SDR.DTS-HD.MA.TrueHD.7.1.Atmos-SWTYBLZ 17.99GB

The.Boss.Baby.Family.Business.2021.2160p.BluRay.x264.8bit.SDR.DTS-HD.MA.TrueHD.7.torrent

23.27 KB, 下载次数: 1, 下载积分: 蓝光币 -2

回复

使用道具 举报

蓝光币
22
发表于 3 天前 | 显示全部楼层

这个帖子不回对不起自己!我想我是一天也不能离开蓝光电影网。
回复 支持 反对

使用道具 举报

懒得打字嘛,点击右侧快捷回复 【右侧内容,后台自定义】
您需要登录后才可以回帖 登录 | 立即加入

本版积分规则

Archiver|小黑屋| 蓝光电影网 |网站地图

Copyright © 2021 Comsenz Inc. Powered by 蓝光电影网

蓝光电影网

本站内容由用户自主分享和转载自互联网,转载目的在于传递更多信息,并不代表本网赞同其观点和对其真实性负责。

如有侵权、违反国家法律政策行为,请联系我们,我们会第一时间及时清除和处理!

举报反馈邮箱:[email protected]

快速回复 返回顶部 返回列表