找回密码

蓝光电影网

查看: 63|回复: 0

[2160p] 宝贝老板2/宝贝老板:家大业大 The.Boss.Baby.Family.Business.2021.2160p.BluRay.x265.10bit.SDR.DTS-HD.MA.TrueHD.7.1.Atmos-SWTYBLZ 16.87GB

[复制链接]
蓝光币
382
发表于 3 天前 | 显示全部楼层 |阅读模式


◎译  名 宝贝老板2/宝贝老板:家大业大(台)/宝贝老板2:家属企业/波士BB 2世祖(港)
◎片  名 The Boss Baby: Family Business
◎年  代 2021
◎产  地 美国
◎类  别 笑剧 / 动画
◎语  言 英语
◎上映日期 2021-07-02(美国/美国收集)
◎豆瓣评分 6.7/10 from 5845 users
◎豆瓣链接 https://movie.douban.com/subject/27056396/
◎片  长 107分钟
◎导  演 汤姆·麦格拉思 Tom McGrath
◎编  剧 玛拉·弗雷齐 Marla Frazee / 迈克尔·麦库勒斯 Michael McCullers
◎主  演 亚历克·鲍德温 Alec Baldwin
       詹姆斯·麦斯登 James Marsden
       艾米·塞德丽丝 Amy Sedaris
       阿丽亚娜·格林布拉特 Ariana Greenblatt
       杰夫·高布伦 Jeff Goldblum
       伊娃·朗格利亚 Eva Longoria
       詹姆斯·麦格拉思 James McGrath
       吉米·坎摩尔 Jimmy Kimmel
       丽莎·库卓 Lisa Kudrow
       拉斐尔·亚历杭德罗 Raphael Alejandro
       塞雷妮蒂·瑞恩·布朗 Serenity Reign Brown
       大卫·索伦 David Soren
       詹姆斯·雷恩 James Ryan
       戴维·P·史姑娘 David P. Smith
       汤姆·麦格拉思 Tom McGrath
       沃尔特·道恩 Walt Dohrn
       阿普里尔·劳伦斯 April Lawrence
       迈尔斯·克里斯托弗·巴克什 Miles Christopher Bakshi
       琳娜·泽格 Lynnanne Zager
◎标  签 动画 | 笑剧 | 美国 | 搞笑 | 小宝宝 | 兄弟 | 萌 | 卖萌
◎简  介


  设定在首部多年以后,邓普顿兄弟蒂姆和泰德长大成人,两人关系也逐步冷淡。蒂姆已婚已育,泰德是对冲基金的首席履行官,两人将由于一个有着先辈方式和积极进取态度的新任“宝贝老板”重新联系在一路,激起出新的家属企业。
  
  蒂姆和有“超级妈妈”之称的妻子卡罗尔及异常聪明的7岁女儿塔比莎、刚诞生超级心爱的婴儿蒂娜住在郊区,塔比莎是一一切威望的教育机构的尖子生,将叔叔泰德视为偶像,想成为他那样的人,但蒂姆担忧她过分勤奋,致使没法过一个一般的童年。当蒂娜作为宝贝团体最高机密奸细的实在身份曝光,目标是为了揭开塔比莎黉舍及其奥秘开创人阿姆斯特朗博士背后的黑暗奥秘时,邓普顿兄弟将以一种意想不到的方式重聚,两人重新审阅家庭的意义,大白什么才是最重要的。
  1. Video
  2. ID                                       : 1
  3. Format                                   : HEVC
  4. Format/Info                              : High Efficiency Video Coding
  5. Format profile                           : Main [email protected]@High
  6. Codec ID                                 : V_MPEGH/ISO/HEVC
  7. Duration                                 : 1 h 47 min
  8. Bit rate                                 : 14.0 Mb/s
  9. Width                                    : 3 840 pixels
  10. Height                                   : 1 608 pixels
  11. Display aspect ratio                     : 2.40:1
  12. Frame rate mode                          : Constant
  13. Frame rate                               : 23.976 (24000/1001/189150) FPS
  14. Color space                              : YUV
  15. Chroma subsampling                       : 4:2:0
  16. Bit depth                                : 10 bits
  17. Bits/(Pixel*Frame)                       : 0.094
  18. Stream size                              : 10.5 GiB (63%)
  19. Writing library                          : x265 3.0ed72af837053:[Windows][GCC 8.2.0][64 bit] 10bit
  20. Encoding settings                        : cpuid=1111039 / frame-threads=6 / numa-pools=40 / wpp / no-pmode / no-pme / no-psnr / no-ssim / log-level=2 / input-csp=1 / input-res=3840x1608 / interlace=0 / total-frames=154248 / level-idc=51 / high-tier=1 / uhd-bd=0 / ref=3 / no-allow-non-conformance / repeat-headers / annexb / aud / hrd / info / hash=0 / no-temporal-layers / no-open-gop / min-keyint=1 / keyint=24 / gop-lookahead=0 / bframes=6 / b-adapt=2 / b-pyramid / bframe-bias=0 / rc-lookahead=25 / lookahead-slices=4 / scenecut=40 / radl=0 / no-splice / no-intra-refresh / ctu=64 / min-cu-size=8 / no-rect / no-amp / max-tu-size=32 / tu-inter-depth=1 / tu-intra-depth=1 / limit-tu=0 / rdoq-level=0 / dynamic-rd=0.00 / no-ssim-rd / signhide / no-tskip / nr-intra=0 / nr-inter=0 / no-constrained-intra / strong-intra-smoothing / max-merge=2 / limit-refs=3 / no-limit-modes / me=1 / subme=2 / merange=57 / temporal-mvp / weightp / no-weightb / no-analyze-src-pics / deblock=1:1 / no-sao / no-sao-non-deblock / rd=3 / no-early-skip / rskip / no-fast-intra / no-tskip-fast / no-cu-lossless / no-b-intra / no-splitrd-skip / rdpenalty=0 / psy-rd=0.40 / psy-rdoq=0.00 / no-rd-refine / no-lossless / cbqpoffs=0 / crqpoffs=0 / rc=crf / crf=14.0 / qcomp=0.60 / qpstep=4 / stats-write=0 / stats-read=0 / vbv-maxrate=160000 / vbv-bufsize=160000 / vbv-init=0.9 / crf-max=0.0 / crf-min=0.0 / ipratio=1.40 / pbratio=1.30 / aq-mode=1 / aq-strength=0.40 / cutree / zone-count=0 / no-strict-cbr / qg-size=32 / no-rc-grain / qpmax=69 / qpmin=0 / no-const-vbv / sar=1 / overscan=0 / videoformat=5 / range=0 / colorprim=2 / transfer=2 / colormatrix=2 / chromaloc=0 / display-window=0 / max-cll=0,0 / min-luma=0 / max-luma=1023 / log2-max-poc-lsb=8 / vui-timing-info / vui-hrd-info / slices=1 / opt-qp-pps / opt-ref-list-length-pps / no-multi-pass-opt-rps / scenecut-bias=0.05 / no-opt-cu-delta-qp / no-aq-motion / no-hdr / no-hdr-opt / no-dhdr10-opt / no-idr-recovery-sei / analysis-reuse-level=5 / scale-factor=0 / refine-intra=0 / refine-inter=0 / refine-mv=0 / refine-ctu-distortion=0 / no-limit-sao / ctu-info=0 / no-lowpass-dct / refine-analysis-type=0 / copy-pic=1 / max-ausize-factor=1.0 / no-dynamic-refine / no-single-sei / no-hevc-aq / qp-adaptation-range=1.00
  21. Default                                  : Yes
  22. Forced                                   : No

  23. Audio #1
  24. ID                                       : 2
  25. ID in the original source medium         : 4352 (0x1100)
  26. Format                                   : MLP FBA 16-ch
  27. Format/Info                              : Meridian Lossless Packing FBA with 16-channel presentation
  28. Commercial name                          : Dolby TrueHD with Dolby Atmos
  29. Codec ID                                 : A_TRUEHD
  30. Duration                                 : 1 h 47 min
  31. Bit rate mode                            : Variable
  32. Bit rate                                 : 3 200 kb/s
  33. Maximum bit rate                         : 5 106 kb/s
  34. Channel(s)                               : 8 channels
  35. Channel layout                           : L R C LFE Ls Rs Lb Rb
  36. Sampling rate                            : 48.0 kHz
  37. Frame rate                               : 1 200.000 FPS (40 SPF)
  38. Bit depth                                : 24 bits
  39. Compression mode                         : Lossless
  40. Stream size                              : 2.40 GiB (14%)
  41. Title                                    : TrueHD 7.1 Atmos
  42. Language                                 : English
  43. Default                                  : Yes
  44. Forced                                   : No
  45. Original source medium                   : Blu-ray
  46. Number of dynamic objects                : 11
  47. Bed channel count                        : 1 channel
  48. Bed channel configuration                : LFE

  49. Audio #2
  50. ID                                       : 3
  51. Format                                   : DTS XLL
  52. Format/Info                              : Digital Theater Systems
  53. Commercial name                          : DTS-HD Master Audio
  54. Codec ID                                 : A_DTS
  55. Duration                                 : 1 h 47 min
  56. Bit rate mode                            : Variable
  57. Bit rate                                 : 4 574 kb/s
  58. Channel(s)                               : 8 channels
  59. Channel layout                           : C L R LFE Lb Rb Lss Rss
  60. Sampling rate                            : 48.0 kHz
  61. Frame rate                               : 93.750 FPS (512 SPF)
  62. Bit depth                                : 24 bits
  63. Compression mode                         : Lossless
  64. Stream size                              : 3.43 GiB (20%)
  65. Title                                    : DTS-HD MA 7.1
  66. Language                                 : English
  67. Default                                  : No
  68. Forced                                   : No

  69. Audio #3
  70. ID                                       : 4
  71. ID in the original source medium         : 4352 (0x1100)
  72. Format                                   : AC-3
  73. Format/Info                              : Audio Coding 3
  74. Commercial name                          : Dolby Digital
  75. Codec ID                                 : A_AC3
  76. Duration                                 : 1 h 47 min
  77. Bit rate mode                            : Constant
  78. Bit rate                                 : 448 kb/s
  79. Channel(s)                               : 6 channels
  80. Channel layout                           : L R C LFE Ls Rs
  81. Sampling rate                            : 48.0 kHz
  82. Frame rate                               : 31.250 FPS (1536 SPF)
  83. Compression mode                         : Lossy
  84. Stream size                              : 344 MiB (2%)
  85. Title                                    : DD 5.1
  86. Language                                 : English
  87. Service kind                             : Complete Main
  88. Default                                  : No
  89. Forced                                   : No
  90. Original source medium                   : Blu-ray

  91. Text #1
  92. ID                                       : 5
  93. Format                                   : UTF-8
  94. Codec ID                                 : S_TEXT/UTF8
  95. Codec ID/Info                            : UTF-8 Plain Text
  96. Duration                                 : 1 h 40 min
  97. Bit rate                                 : 82 b/s
  98. Count of elements                        : 2173
  99. Stream size                              : 61.1 KiB (0%)
  100. Title                                    : SRT
  101. Language                                 : English
  102. Default                                  : Yes
  103. Forced                                   : No

  104. Text #2
  105. ID                                       : 6
  106. ID in the original source medium         : 4768 (0x12A0)
  107. Format                                   : PGS
  108. Muxing mode                              : zlib
  109. Codec ID                                 : S_HDMV/PGS
  110. Codec ID/Info                            : Picture based subtitle format used on BDs/HD-DVDs
  111. Duration                                 : 1 h 40 min
  112. Bit rate                                 : 68.8 kb/s
  113. Count of elements                        : 4920
  114. Stream size                              : 49.6 MiB (0%)
  115. Language                                 : English
  116. Default                                  : No
  117. Forced                                   : No
  118. Original source medium                   : Blu-ray

  119. Text #3
  120. ID                                       : 7
  121. ID in the original source medium         : 4769 (0x12A1)
  122. Format                                   : PGS
  123. Muxing mode                              : zlib
  124. Codec ID                                 : S_HDMV/PGS
  125. Codec ID/Info                            : Picture based subtitle format used on BDs/HD-DVDs
  126. Duration                                 : 1 h 46 min
  127. Bit rate                                 : 51.2 kb/s
  128. Count of elements                        : 4186
  129. Stream size                              : 38.9 MiB (0%)
  130. Language                                 : Spanish
  131. Default                                  : No
  132. Forced                                   : No
  133. Original source medium                   : Blu-ray

  134. Text #4
  135. ID                                       : 8
  136. ID in the original source medium         : 4770 (0x12A2)
  137. Format                                   : PGS
  138. Muxing mode                              : zlib
  139. Codec ID                                 : S_HDMV/PGS
  140. Codec ID/Info                            : Picture based subtitle format used on BDs/HD-DVDs
  141. Duration                                 : 1 h 46 min
  142. Bit rate                                 : 48.7 kb/s
  143. Count of elements                        : 4170
  144. Stream size                              : 37.0 MiB (0%)
  145. Language                                 : French
  146. Default                                  : No
  147. Forced                                   : No
  148. Original source medium                   : Blu-ray

  149. Menu
  150. 00:00:00.000                             : Chapter 01
  151. 00:04:18.424                             : Chapter 02
  152. 00:09:50.673                             : Chapter 03
  153. 00:13:43.364                             : Chapter 04
  154. 00:19:51.648                             : Chapter 05
  155. 00:24:54.951                             : Chapter 06
  156. 00:29:12.125                             : Chapter 07
  157. 00:34:22.018                             : Chapter 08
  158. 00:38:09.203                             : Chapter 09
  159. 00:44:36.423                             : Chapter 10
  160. 00:51:25.123                             : Chapter 11
  161. 01:00:47.977                             : Chapter 12
  162. 01:04:54.473                             : Chapter 13
  163. 01:08:07.958                             : Chapter 14
  164. 01:13:27.111                             : Chapter 15
  165. 01:18:38.171                             : Chapter 16
  166. 01:22:44.250                             : Chapter 17
  167. 01:27:13.353                             : Chapter 18
  168. 01:35:06.826                             : Chapter 19
  169. 01:38:13.721                             : Chapter 20
复制代码












                                       
                                       

                                       
                                       
                                       




宝贝老板2/宝贝老板:家大业大 The.Boss.Baby.Family.Business.2021.2160p.BluRay.x265.10bit.SDR.DTS-HD.MA.TrueHD.7.1.Atmos-SWTYBLZ 16.87GB

The.Boss.Baby.Family.Business.2021.2160p.BluRay.x265.10bit.SDR.DTS-HD.MA.TrueHD..torrent

21.86 KB, 下载次数: 5, 下载积分: 蓝光币 -2

回复

使用道具 举报

懒得打字嘛,点击右侧快捷回复 【右侧内容,后台自定义】
您需要登录后才可以回帖 登录 | 立即加入

本版积分规则

Archiver|小黑屋| 蓝光电影网 |网站地图

Copyright © 2021 Comsenz Inc. Powered by 蓝光电影网

蓝光电影网

本站内容由用户自主分享和转载自互联网,转载目的在于传递更多信息,并不代表本网赞同其观点和对其真实性负责。

如有侵权、违反国家法律政策行为,请联系我们,我们会第一时间及时清除和处理!

举报反馈邮箱:[email protected]

快速回复 返回顶部 返回列表