找回密码

蓝光电影网

查看: 159|回复: 5

[2160p] 肖申克的救赎/刺激1995 The.Shawshank.Redemption.1994.2160p.BluRay.x264.8bit.SDR.DTS-HD.MA.5.1-SWTYBLZ 53.66GB

[复制链接]
蓝光币
382
发表于 3 天前 | 显示全部楼层 |阅读模式
[img][/img]

◎译  名 肖申克的救赎/刺激1995(台)/天堂信誉/月黑高飞(港)/消香克的救赎/铁窗光阴
◎片  名 The Shawshank Redemption
◎年  代 1994
◎产  地 美国
◎类  别 剧情 / 犯罪
◎语  言 英语
◎上映日期 1994-09-10(多伦多电影节) / 1994-10-14(美国)
◎豆瓣评分 9.7/10 from 2446047 users
◎豆瓣链接 https://movie.douban.com/subject/1292052/
◎片  长 142分钟
◎导  演 弗兰克·德拉邦特 Frank Darabont
◎编  剧 弗兰克·德拉邦特 Frank Darabont / 斯蒂芬·金 Stephen King
◎主  演 蒂姆·罗宾斯 Tim Robbins
       摩根·弗里曼 Morgan Freeman
       鲍勃·冈顿 Bob Gunton
       威廉姆·赛德勒 William Sadler
       克兰西·布朗 Clancy Brown
       吉尔·贝罗斯 Gil Bellows
       马克·罗斯顿 Mark Rolston
       詹姆斯·惠特摩 James Whitmore
       杰弗里·德曼 Jeffrey DeMunn
       拉里·布兰登伯格 Larry Brandenburg
       尼尔·吉恩托利 Neil Giuntoli
       布赖恩·利比 Brian Libby
       大卫·普罗瓦尔 David Proval
       约瑟夫·劳格诺 Joseph Ragno
       祖德·塞克利拉 Jude Ciccolella
       保罗·麦克兰尼 Paul McCrane
       芮妮·布莱恩 Renee Blaine
       阿方索·弗里曼 Alfonso Freeman
       V·J·福斯特 V.J. Foster
       弗兰克·梅德拉诺 Frank Medrano
       马克·迈尔斯 Mack Miles
       尼尔·萨默斯 Neil Summers
       耐德·巴拉米 Ned Bellamy
       布赖恩·戴拉特 Brian Delate
       唐·麦克马纳斯 Don McManus
◎标  签 典范 | 励志 | 信心 | 自在 | 人性 | 人生 | 希望 | 美国
◎简  介


  一场谋杀案使银里手安迪(蒂姆?罗宾斯 Tim Robbins 饰)蒙冤入狱,谋杀妻子及其情人的控告将软禁他终生。在肖申克牢狱的初次现身就让牢狱“年老”瑞德(摩根?弗里曼 Morgan Freeman 饰)对他另眼相看。瑞德帮助他搞到一把石锤和一幅女明星海报,两人渐成磨难 之交。很快,安迪在牢狱里大显其才,担任牢狱图书治理员,并操纵自己的金融常识帮助牢狱官避税,引发了典狱长的留意,被招致麾下帮助典狱长洗陋规。偶然一次,他得知一位新入狱的小偷可以作证帮他洗脱谋杀罪。燃起一丝希望的安迪找到了典狱长,希望他能帮自己昭雪。凶险伪善的狱长伪装答应安迪,背后却派人杀死小偷,让他唯一能正当出狱的希望耗费。沮丧的安迪并没有失望,在一个电闪雷鸣的风雨夜,一场隐藏几十年的逃狱计划让他自我救赎,重获自在!老朋友瑞德在他的鼓舞和帮助下,也勇敢地奔向自在。
  
  本片获得1995年奥斯卡10项提名,以及金球奖、土星奖等多项提名。
◎获奖情况
  第67届奥斯卡金像奖 ?(1995)
  最好影片(提名) 妮基·马文
  最好男配角(提名) 摩根·弗里曼
  最好改编剧本(提名) 弗兰克·德拉邦特
  最好摄影(提名) 罗杰·狄金斯
  最好剪辑(提名) 理查德·弗朗西斯-布鲁斯
  最好声响(提名) 威利·D·伯顿?/?迈克尔·赫尔比克?/?罗伯特·J·利特?/?艾略特·泰森
  最好原创配乐(提名) 托马斯·纽曼
  
  第52届金球奖 ?(1995)
  电影类剧情片最好男配角(提名) 摩根·弗里曼
  电影类最好编剧(提名) 弗兰克·德拉邦特
  
  第19届日本电影学院奖 ?(1996)
  最好外语片
  
  第20届报知映画赏 ?(1995)
  外洋作品奖 弗兰克·德拉邦特
  1. Video
  2. ID                                       : 1
  3. Format                                   : AVC
  4. Format/Info                              : Advanced Video Codec
  5. Format profile                           : [email protected]
  6. Format settings                          : CABAC / 5 Ref Frames
  7. Format settings, CABAC                   : Yes
  8. Format settings, Reference frames        : 5 frames
  9. Codec ID                                 : V_MPEG4/ISO/AVC
  10. Duration                                 : 2 h 22 min
  11. Bit rate                                 : 48.6 Mb/s
  12. Width                                    : 3 840 pixels
  13. Height                                   : 2 076 pixels
  14. Display aspect ratio                     : 1.85:1
  15. Frame rate mode                          : Constant
  16. Frame rate                               : 23.976 (24000/1001/189150) FPS
  17. Color space                              : YUV
  18. Chroma subsampling                       : 4:2:0
  19. Bit depth                                : 8 bits
  20. Scan type                                : Progressive
  21. Bits/(Pixel*Frame)                       : 0.254
  22. Stream size                              : 48.3 GiB (90%)
  23. Writing library                          : x264 core 157 r2935 545de2f
  24. Encoding settings                        : cabac=1 / ref=5 / deblock=1:-1:-1 / analyse=0x3:0x113 / me=umh / subme=10 / psy=1 / psy_rd=1.00:0.15 / mixed_ref=1 / me_range=48 / chroma_me=1 / trellis=2 / 8x8dct=1 / cqm=0 / deadzone=21,11 / fast_pskip=1 / chroma_qp_offset=-3 / threads=48 / lookahead_threads=4 / sliced_threads=0 / nr=0 / decimate=0 / interlaced=0 / bluray_compat=0 / constrained_intra=0 / bframes=3 / b_pyramid=2 / b_adapt=2 / b_bias=0 / direct=3 / weightb=1 / open_gop=0 / weightp=2 / keyint=250 / keyint_min=23 / scenecut=40 / intra_refresh=0 / rc_lookahead=50 / rc=crf / mbtree=1 / crf=18.0 / qcomp=0.60 / qpmin=0 / qpmax=69 / qpstep=4 / ip_ratio=1.40 / aq=1:1.00
  25. Default                                  : Yes
  26. Forced                                   : No

  27. Audio #1
  28. ID                                       : 2
  29. ID in the original source medium         : 4352 (0x1100)
  30. Format                                   : DTS XLL
  31. Format/Info                              : Digital Theater Systems
  32. Commercial name                          : DTS-HD Master Audio
  33. Codec ID                                 : A_DTS
  34. Duration                                 : 2 h 22 min
  35. Bit rate mode                            : Variable
  36. Bit rate                                 : 4 207 kb/s
  37. Channel(s)                               : 6 channels
  38. Channel layout                           : C L R Ls Rs LFE
  39. Sampling rate                            : 48.0 kHz
  40. Frame rate                               : 93.750 FPS (512 SPF)
  41. Bit depth                                : 24 bits
  42. Compression mode                         : Lossless
  43. Stream size                              : 4.19 GiB (8%)
  44. Title                                    : DTS-HD MA 5.1
  45. Language                                 : English
  46. Default                                  : Yes
  47. Forced                                   : No
  48. Original source medium                   : Blu-ray

  49. Audio #2
  50. ID                                       : 3
  51. Format                                   : AC-3
  52. Format/Info                              : Audio Coding 3
  53. Commercial name                          : Dolby Digital
  54. Codec ID                                 : A_AC3
  55. Duration                                 : 2 h 22 min
  56. Bit rate mode                            : Constant
  57. Bit rate                                 : 640 kb/s
  58. Channel(s)                               : 6 channels
  59. Channel layout                           : L R C LFE Ls Rs
  60. Sampling rate                            : 48.0 kHz
  61. Frame rate                               : 31.250 FPS (1536 SPF)
  62. Compression mode                         : Lossy
  63. Stream size                              : 653 MiB (1%)
  64. Title                                    : DD 5.1
  65. Language                                 : English
  66. Service kind                             : Complete Main
  67. Default                                  : No
  68. Forced                                   : No

  69. Text #1
  70. ID                                       : 4
  71. Format                                   : UTF-8
  72. Codec ID                                 : S_TEXT/UTF8
  73. Codec ID/Info                            : UTF-8 Plain Text
  74. Duration                                 : 2 h 17 min
  75. Bit rate                                 : 58 b/s
  76. Count of elements                        : 1734
  77. Stream size                              : 58.4 KiB (0%)
  78. Title                                    : SRT
  79. Language                                 : English
  80. Default                                  : Yes
  81. Forced                                   : No

  82. Text #2
  83. ID                                       : 5
  84. ID in the original source medium         : 4768 (0x12A0)
  85. Format                                   : PGS
  86. Muxing mode                              : zlib
  87. Codec ID                                 : S_HDMV/PGS
  88. Codec ID/Info                            : Picture based subtitle format used on BDs/HD-DVDs
  89. Duration                                 : 2 h 16 min
  90. Bit rate                                 : 20.8 kb/s
  91. Count of elements                        : 2901
  92. Stream size                              : 20.2 MiB (0%)
  93. Language                                 : Japanese
  94. Default                                  : No
  95. Forced                                   : No
  96. Original source medium                   : Blu-ray

  97. Text #3
  98. ID                                       : 6
  99. ID in the original source medium         : 4769 (0x12A1)
  100. Format                                   : PGS
  101. Muxing mode                              : zlib
  102. Codec ID                                 : S_HDMV/PGS
  103. Codec ID/Info                            : Picture based subtitle format used on BDs/HD-DVDs
  104. Duration                                 : 2 h 17 min
  105. Bit rate                                 : 34.9 kb/s
  106. Count of elements                        : 3556
  107. Stream size                              : 34.3 MiB (0%)
  108. Language                                 : English
  109. Default                                  : No
  110. Forced                                   : No
  111. Original source medium                   : Blu-ray

  112. Text #4
  113. ID                                       : 7
  114. ID in the original source medium         : 4770 (0x12A2)
  115. Format                                   : PGS
  116. Muxing mode                              : zlib
  117. Codec ID                                 : S_HDMV/PGS
  118. Codec ID/Info                            : Picture based subtitle format used on BDs/HD-DVDs
  119. Duration                                 : 2 h 21 min
  120. Bit rate                                 : 22.0 kb/s
  121. Count of elements                        : 3176
  122. Stream size                              : 22.3 MiB (0%)
  123. Language                                 : French
  124. Default                                  : No
  125. Forced                                   : No
  126. Original source medium                   : Blu-ray

  127. Text #5
  128. ID                                       : 8
  129. ID in the original source medium         : 4771 (0x12A3)
  130. Format                                   : PGS
  131. Muxing mode                              : zlib
  132. Codec ID                                 : S_HDMV/PGS
  133. Codec ID/Info                            : Picture based subtitle format used on BDs/HD-DVDs
  134. Duration                                 : 2 h 21 min
  135. Bit rate                                 : 37.6 kb/s
  136. Count of elements                        : 3522
  137. Stream size                              : 37.9 MiB (0%)
  138. Language                                 : German
  139. Default                                  : No
  140. Forced                                   : No
  141. Original source medium                   : Blu-ray

  142. Text #6
  143. ID                                       : 9
  144. ID in the original source medium         : 4772 (0x12A4)
  145. Format                                   : PGS
  146. Muxing mode                              : zlib
  147. Codec ID                                 : S_HDMV/PGS
  148. Codec ID/Info                            : Picture based subtitle format used on BDs/HD-DVDs
  149. Duration                                 : 2 h 17 min
  150. Bit rate                                 : 34.5 kb/s
  151. Count of elements                        : 3536
  152. Stream size                              : 33.9 MiB (0%)
  153. Language                                 : Italian
  154. Default                                  : No
  155. Forced                                   : No
  156. Original source medium                   : Blu-ray

  157. Text #7
  158. ID                                       : 10
  159. ID in the original source medium         : 4773 (0x12A5)
  160. Format                                   : PGS
  161. Muxing mode                              : zlib
  162. Codec ID                                 : S_HDMV/PGS
  163. Codec ID/Info                            : Picture based subtitle format used on BDs/HD-DVDs
  164. Duration                                 : 2 h 21 min
  165. Bit rate                                 : 31.7 kb/s
  166. Count of elements                        : 3472
  167. Stream size                              : 32.1 MiB (0%)
  168. Language                                 : Spanish
  169. Default                                  : No
  170. Forced                                   : No
  171. Original source medium                   : Blu-ray

  172. Text #8
  173. ID                                       : 11
  174. ID in the original source medium         : 4774 (0x12A6)
  175. Format                                   : PGS
  176. Muxing mode                              : zlib
  177. Codec ID                                 : S_HDMV/PGS
  178. Codec ID/Info                            : Picture based subtitle format used on BDs/HD-DVDs
  179. Duration                                 : 2 h 20 min
  180. Bit rate                                 : 29.8 kb/s
  181. Count of elements                        : 3020
  182. Stream size                              : 29.9 MiB (0%)
  183. Language                                 : Dutch
  184. Default                                  : No
  185. Forced                                   : No
  186. Original source medium                   : Blu-ray

  187. Text #9
  188. ID                                       : 12
  189. ID in the original source medium         : 4775 (0x12A7)
  190. Format                                   : PGS
  191. Muxing mode                              : zlib
  192. Codec ID                                 : S_HDMV/PGS
  193. Codec ID/Info                            : Picture based subtitle format used on BDs/HD-DVDs
  194. Duration                                 : 2 h 17 min
  195. Bit rate                                 : 28.3 kb/s
  196. Count of elements                        : 3416
  197. Stream size                              : 27.9 MiB (0%)
  198. Language                                 : Chinese
  199. Default                                  : No
  200. Forced                                   : No
  201. Original source medium                   : Blu-ray

  202. Text #10
  203. ID                                       : 13
  204. ID in the original source medium         : 4776 (0x12A8)
  205. Format                                   : PGS
  206. Muxing mode                              : zlib
  207. Codec ID                                 : S_HDMV/PGS
  208. Codec ID/Info                            : Picture based subtitle format used on BDs/HD-DVDs
  209. Duration                                 : 2 h 17 min
  210. Bit rate                                 : 28.5 kb/s
  211. Count of elements                        : 3416
  212. Stream size                              : 28.1 MiB (0%)
  213. Language                                 : Chinese
  214. Default                                  : No
  215. Forced                                   : No
  216. Original source medium                   : Blu-ray

  217. Text #11
  218. ID                                       : 14
  219. ID in the original source medium         : 4777 (0x12A9)
  220. Format                                   : PGS
  221. Muxing mode                              : zlib
  222. Codec ID                                 : S_HDMV/PGS
  223. Codec ID/Info                            : Picture based subtitle format used on BDs/HD-DVDs
  224. Duration                                 : 2 h 17 min
  225. Bit rate                                 : 24.0 kb/s
  226. Count of elements                        : 3444
  227. Stream size                              : 23.6 MiB (0%)
  228. Language                                 : Korean
  229. Default                                  : No
  230. Forced                                   : No
  231. Original source medium                   : Blu-ray

  232. Text #12
  233. ID                                       : 15
  234. ID in the original source medium         : 4778 (0x12AA)
  235. Format                                   : PGS
  236. Muxing mode                              : zlib
  237. Codec ID                                 : S_HDMV/PGS
  238. Codec ID/Info                            : Picture based subtitle format used on BDs/HD-DVDs
  239. Duration                                 : 2 h 17 min
  240. Bit rate                                 : 29.6 kb/s
  241. Count of elements                        : 3390
  242. Stream size                              : 29.1 MiB (0%)
  243. Language                                 : Spanish
  244. Default                                  : No
  245. Forced                                   : No
  246. Original source medium                   : Blu-ray

  247. Text #13
  248. ID                                       : 16
  249. ID in the original source medium         : 4779 (0x12AB)
  250. Format                                   : PGS
  251. Muxing mode                              : zlib
  252. Codec ID                                 : S_HDMV/PGS
  253. Codec ID/Info                            : Picture based subtitle format used on BDs/HD-DVDs
  254. Duration                                 : 2 h 21 min
  255. Bit rate                                 : 28.8 kb/s
  256. Count of elements                        : 3412
  257. Stream size                              : 29.1 MiB (0%)
  258. Language                                 : Czech
  259. Default                                  : No
  260. Forced                                   : No
  261. Original source medium                   : Blu-ray

  262. Text #14
  263. ID                                       : 17
  264. ID in the original source medium         : 4780 (0x12AC)
  265. Format                                   : PGS
  266. Muxing mode                              : zlib
  267. Codec ID                                 : S_HDMV/PGS
  268. Codec ID/Info                            : Picture based subtitle format used on BDs/HD-DVDs
  269. Duration                                 : 2 h 21 min
  270. Bit rate                                 : 34.6 kb/s
  271. Count of elements                        : 3724
  272. Stream size                              : 35.1 MiB (0%)
  273. Language                                 : Danish
  274. Default                                  : No
  275. Forced                                   : No
  276. Original source medium                   : Blu-ray

  277. Text #15
  278. ID                                       : 18
  279. ID in the original source medium         : 4781 (0x12AD)
  280. Format                                   : PGS
  281. Muxing mode                              : zlib
  282. Codec ID                                 : S_HDMV/PGS
  283. Codec ID/Info                            : Picture based subtitle format used on BDs/HD-DVDs
  284. Duration                                 : 2 h 20 min
  285. Bit rate                                 : 30.7 kb/s
  286. Count of elements                        : 3276
  287. Stream size                              : 30.8 MiB (0%)
  288. Language                                 : Finnish
  289. Default                                  : No
  290. Forced                                   : No
  291. Original source medium                   : Blu-ray

  292. Text #16
  293. ID                                       : 19
  294. ID in the original source medium         : 4782 (0x12AE)
  295. Format                                   : PGS
  296. Muxing mode                              : zlib
  297. Codec ID                                 : S_HDMV/PGS
  298. Codec ID/Info                            : Picture based subtitle format used on BDs/HD-DVDs
  299. Duration                                 : 2 h 20 min
  300. Bit rate                                 : 29.7 kb/s
  301. Count of elements                        : 3710
  302. Stream size                              : 29.8 MiB (0%)
  303. Language                                 : Norwegian
  304. Default                                  : No
  305. Forced                                   : No
  306. Original source medium                   : Blu-ray

  307. Text #17
  308. ID                                       : 20
  309. ID in the original source medium         : 4783 (0x12AF)
  310. Format                                   : PGS
  311. Muxing mode                              : zlib
  312. Codec ID                                 : S_HDMV/PGS
  313. Codec ID/Info                            : Picture based subtitle format used on BDs/HD-DVDs
  314. Duration                                 : 2 h 16 min
  315. Bit rate                                 : 35.2 kb/s
  316. Count of elements                        : 3730
  317. Stream size                              : 34.3 MiB (0%)
  318. Language                                 : Polish
  319. Default                                  : No
  320. Forced                                   : No
  321. Original source medium                   : Blu-ray

  322. Text #18
  323. ID                                       : 21
  324. ID in the original source medium         : 4784 (0x12B0)
  325. Format                                   : PGS
  326. Muxing mode                              : zlib
  327. Codec ID                                 : S_HDMV/PGS
  328. Codec ID/Info                            : Picture based subtitle format used on BDs/HD-DVDs
  329. Duration                                 : 2 h 20 min
  330. Bit rate                                 : 33.0 kb/s
  331. Count of elements                        : 3408
  332. Stream size                              : 33.1 MiB (0%)
  333. Language                                 : Swedish
  334. Default                                  : No
  335. Forced                                   : No
  336. Original source medium                   : Blu-ray

  337. Text #19
  338. ID                                       : 22
  339. ID in the original source medium         : 4792 (0x12B8)
  340. Format                                   : PGS
  341. Muxing mode                              : zlib
  342. Codec ID                                 : S_HDMV/PGS
  343. Codec ID/Info                            : Picture based subtitle format used on BDs/HD-DVDs
  344. Duration                                 : 2 h 20 min
  345. Bit rate                                 : 44.1 kb/s
  346. Count of elements                        : 3548
  347. Stream size                              : 44.4 MiB (0%)
  348. Language                                 : Japanese
  349. Default                                  : No
  350. Forced                                   : No
  351. Original source medium                   : Blu-ray

  352. Text #20
  353. ID                                       : 23
  354. ID in the original source medium         : 4793 (0x12B9)
  355. Format                                   : PGS
  356. Muxing mode                              : zlib
  357. Codec ID                                 : S_HDMV/PGS
  358. Codec ID/Info                            : Picture based subtitle format used on BDs/HD-DVDs
  359. Duration                                 : 2 h 10 min
  360. Bit rate                                 : 372 b/s
  361. Count of elements                        : 58
  362. Stream size                              : 357 KiB (0%)
  363. Title                                    : FORCED
  364. Language                                 : Japanese
  365. Default                                  : No
  366. Forced                                   : No
  367. Original source medium                   : Blu-ray

  368. Menu
  369. 00:00:00.000                             : Chapter 01
  370. 00:04:40.113                             : Chapter 02
  371. 00:06:38.398                             : Chapter 03
  372. 00:10:07.023                             : Chapter 04
  373. 00:13:45.741                             : Chapter 05
  374. 00:17:59.912                             : Chapter 06
  375. 00:23:43.004                             : Chapter 07
  376. 00:29:00.947                             : Chapter 08
  377. 00:33:32.677                             : Chapter 09
  378. 00:38:50.619                             : Chapter 10
  379. 00:41:06.255                             : Chapter 11
  380. 00:42:40.432                             : Chapter 12
  381. 00:46:14.396                             : Chapter 13
  382. 00:48:14.433                             : Chapter 14
  383. 00:51:21.369                             : Chapter 15
  384. 00:57:19.102                             : Chapter 16
  385. 01:00:27.248                             : Chapter 17
  386. 01:05:45.483                             : Chapter 18
  387. 01:07:16.365                             : Chapter 19
  388. 01:11:03.676                             : Chapter 20
  389. 01:13:53.220                             : Chapter 21
  390. 01:15:55.342                             : Chapter 22
  391. 01:21:07.988                             : Chapter 23
  392. 01:23:58.950                             : Chapter 24
  393. 01:29:25.985                             : Chapter 25
  394. 01:32:10.358                             : Chapter 26
  395. 01:35:36.814                             : Chapter 27
  396. 01:38:28.485                             : Chapter 28
  397. 01:40:38.365                             : Chapter 29
  398. 01:47:23.061                             : Chapter 30
  399. 01:50:45.221                             : Chapter 31
  400. 01:54:30.989                             : Chapter 32
  401. 02:00:35.228                             : Chapter 33
  402. 02:04:09.316                             : Chapter 34
  403. 02:05:51.085                             : Chapter 35
  404. 02:08:25.823                             : Chapter 36
  405. 02:10:13.514                             : Chapter 37
  406. 02:12:56.134                             : Chapter 38
  407. 02:16:27.721                             : Chapter 39
  408. 02:18:07.570                             : Chapter 40
复制代码







                                       
                                       

                                       
                                       
                                       




回复

使用道具 举报

蓝光币
350
发表于 前天 07:04 | 显示全部楼层
再来悄悄看
回复 支持 反对

使用道具 举报

蓝光币
9
发表于 前天 22:19 | 显示全部楼层
摩根弗里曼的演技帅爆了。真正的把角色刻画的入骨三分。尤其是出狱后对社会的不适应,迷茫,试图放弃,传神到位!这部片子是我硬盘中的珍藏
回复 支持 反对

使用道具 举报

蓝光币
1
发表于 昨天 08:09 | 显示全部楼层
相当经典的电影,值得永久收藏!
回复 支持 反对

使用道具 举报

蓝光币
350
发表于 昨天 09:44 | 显示全部楼层
资本原始积累一贯很慢,
回复 支持 反对

使用道具 举报

蓝光币
2
发表于 昨天 15:40 | 显示全部楼层
经典电影,值得一次又一次的看,一次又一次的刷!!!
回复 支持 反对

使用道具 举报

懒得打字嘛,点击右侧快捷回复 【右侧内容,后台自定义】
您需要登录后才可以回帖 登录 | 立即加入

本版积分规则

Archiver|小黑屋| 蓝光电影网 |网站地图

Copyright © 2021 Comsenz Inc. Powered by 蓝光电影网

蓝光电影网

本站内容由用户自主分享和转载自互联网,转载目的在于传递更多信息,并不代表本网赞同其观点和对其真实性负责。

如有侵权、违反国家法律政策行为,请联系我们,我们会第一时间及时清除和处理!

举报反馈邮箱:[email protected]

快速回复 返回顶部 返回列表