找回密码

蓝光电影网

查看: 141|回复: 1

[2160p] 在一起 Together.2021.2160p.WEB-DL.x265.10bit.HDR.DD5.1-NOGRP 9.51GB

[复制链接]
蓝光币
382
发表于 3 天前 | 显示全部楼层 |阅读模式


◎译  名 在一路
◎片  名 Together
◎年  代 2021
◎产  地 英国
◎类  别 剧情
◎语  言 英语
◎上映日期 2021-06-17(英国) / 2021-08-27(美国)
◎豆瓣评分 /10 from 0 users
◎豆瓣链接 https://movie.douban.com/subject/35462126/
◎片  长 91分钟
◎导  演 史蒂芬·感德利 Stephen Daldry /  Justin Martin
◎编  剧 丹尼斯·凯利 Dennis Kelly
◎主  演 詹姆斯·麦卡沃伊 James McAvoy
       莎朗·豪根 Sharon Horgan
◎标  签 2021 | 英国 | JamesMcAvoy | 疫情 | 家庭 | BBC | 笑剧 | 剧情
◎简  介


  报告一对因疫情封城而隔离在家的夫妻,起头重新审阅自己以及两人的关系。
  1. Video
  2. ID                                       : 1
  3. Format                                   : HEVC
  4. Format/Info                              : High Efficiency Video Coding
  5. Format profile                           : Main [email protected]@High
  6. HDR format                               : SMPTE ST 2086, HDR10 compatible
  7. Codec ID                                 : V_MPEGH/ISO/HEVC
  8. Duration                                 : 1 h 32 min
  9. Bit rate                                 : 14.4 Mb/s
  10. Width                                    : 3 836 pixels
  11. Height                                   : 1 920 pixels
  12. Display aspect ratio                     : 1.998
  13. Frame rate mode                          : Constant
  14. Frame rate                               : 23.976 FPS
  15. Color space                              : YUV
  16. Chroma subsampling                       : 4:2:0 (Type 2)
  17. Bit depth                                : 10 bits
  18. Bits/(Pixel*Frame)                       : 0.081
  19. Stream size                              : 9.26 GiB (97%)
  20. Default                                  : Yes
  21. Forced                                   : No
  22. Color range                              : Limited
  23. Color primaries                          : BT.2020
  24. Transfer characteristics                 : PQ
  25. Matrix coefficients                      : BT.2020 non-constant
  26. Mastering display color primaries        : Display P3
  27. Mastering display luminance              : min: 0.0050 cd/m2, max: 1000 cd/m2
  28. Maximum Content Light Level              : 336 cd/m2
  29. Maximum Frame-Average Light Level        : 992 cd/m2

  30. Audio
  31. ID                                       : 2
  32. Format                                   : AC-3
  33. Format/Info                              : Audio Coding 3
  34. Commercial name                          : Dolby Digital
  35. Codec ID                                 : A_AC3
  36. Duration                                 : 1 h 32 min
  37. Bit rate mode                            : Constant
  38. Bit rate                                 : 384 kb/s
  39. Channel(s)                               : 6 channels
  40. Channel layout                           : L R C LFE Ls Rs
  41. Sampling rate                            : 48.0 kHz
  42. Frame rate                               : 31.250 FPS (1536 SPF)
  43. Compression mode                         : Lossy
  44. Stream size                              : 253 MiB (3%)
  45. Title                                    : British English
  46. Language                                 : English
  47. Service kind                             : Complete Main
  48. Default                                  : Yes
  49. Forced                                   : No

  50. Text #1
  51. ID                                       : 3
  52. Format                                   : UTF-8
  53. Codec ID                                 : S_TEXT/UTF8
  54. Codec ID/Info                            : UTF-8 Plain Text
  55. Duration                                 : 1 h 29 min
  56. Bit rate                                 : 103 b/s
  57. Count of elements                        : 1981
  58. Stream size                              : 67.7 KiB (0%)
  59. Language                                 : English
  60. Default                                  : Yes
  61. Forced                                   : No

  62. Text #2
  63. ID                                       : 4
  64. Format                                   : UTF-8
  65. Codec ID                                 : S_TEXT/UTF8
  66. Codec ID/Info                            : UTF-8 Plain Text
  67. Duration                                 : 1 h 29 min
  68. Bit rate                                 : 79 b/s
  69. Count of elements                        : 1570
  70. Stream size                              : 51.7 KiB (0%)
  71. Title                                    : Spanish
  72. Language                                 : Spanish
  73. Default                                  : No
  74. Forced                                   : No
复制代码




                                       
                                       

                                       
                                       
                                       




回复

使用道具 举报

蓝光币
878
发表于 昨天 12:51 | 显示全部楼层
在一起,那就在一起啊。
回复 支持 反对

使用道具 举报

懒得打字嘛,点击右侧快捷回复 【右侧内容,后台自定义】
您需要登录后才可以回帖 登录 | 立即加入

本版积分规则

Archiver|小黑屋| 蓝光电影网 |网站地图

Copyright © 2021 Comsenz Inc. Powered by 蓝光电影网

蓝光电影网

本站内容由用户自主分享和转载自互联网,转载目的在于传递更多信息,并不代表本网赞同其观点和对其真实性负责。

如有侵权、违反国家法律政策行为,请联系我们,我们会第一时间及时清除和处理!

举报反馈邮箱:[email protected]

快速回复 返回顶部 返回列表