找回密码

蓝光电影网

查看: 259|回复: 7

[剧情] 职场心计文学梦/当我成为塞林格 My.Salinger.Year.2020.1080p.BluRay.x264.DTS-FGT 9.18GB

[复制链接]
蓝光币
513
发表于 2021-9-16 19:32:32 | 显示全部楼层 |阅读模式


◎译  名 职场心计文学梦/当我成为塞林格/我的塞林格之年/我的塞林格光阴
◎片  名 My Salinger Year
◎年  代 2020
◎产  地 加拿大,爱尔兰
◎类  别 剧情
◎语  言 英语
◎上映日期 2020-02-20(柏林电影节) / 2021-03-05(美国)
◎豆瓣评分 6.4/10 from 452 users
◎豆瓣链接 https://movie.douban.com/subject/30220620/
◎片  长 101分钟
◎导  演 菲利普·法拉多 Philippe Falardeau
◎编  剧 菲利普·法拉多 Philippe Falardeau
◎主  演 玛格丽特·库里 Margaret Qualley
       西格妮·韦弗 Sigourney Weaver
       道格拉斯·布斯 Douglas Booth
       莎娜·凯斯雷克 Seána Kerslake
       科鲁姆·费奥瑞 Colm Feore
       莱尼·帕克 Leni Parker
       孙晓 Xiao Sun
       加文·德里 Gavin Drea
       西奥多·佩尔兰 Théodore Pellerin
       布莱恩·F·奥博恩 Brian F. O'Byrne
       伊拉娜·盖尔 Elana Gale
       艾伦·大卫 Ellen David
       提姆·波斯特 Tim Post
       亚瑟·霍尔顿 Arthur Holden
       Yanic Truesdale Yanic Truesdale
       西尔维亚·斯图尔特 Sylvia Stewart
       翁德拉·多里安 Ondra Dorian
       马特·霍兰德 Matt Holland
◎标  签 加拿大 | 文艺 | 文学 | 剧情 | 2020 | 列传 | 玛格丽特·库里 | 美国
◎简  介


  故事发生在90年月的纽约,竣事研讨生学业后,胡想成为作家的乔安娜(玛格丽特·奎利饰)被玛格丽特(西格妮·韦弗饰)雇佣为助手,后者是J·D·塞林格(J.D.Salinger)的文学掮客人,以守旧和老派著称。乔安娜白天在一间奢华的木镶板办公室里工作,早晨和她信仰社 会主义的男友在布鲁克林一间陈旧的公寓里留宿。她的首要工作内容是处置塞林格大量书迷的邮件。当细细阅读来自天下各地使民气碎的函件时,她不愿意用格式化和没有人情味的答复去敷衍书迷,并感动地起头带着自己的豪情答复邮件。这些邮件既诙谐又动人,乔安娜在借用伟高文家的声音措辞时,同时摸索着属于自己的声音。
  1. Video
  2. ID                                       : 1
  3. Format                                   : AVC
  4. Format/Info                              : Advanced Video Codec
  5. Format profile                           : [email protected]
  6. Format settings                          : CABAC / 4 Ref Frames
  7. Format settings, CABAC                   : Yes
  8. Format settings, Reference frames        : 4 frames
  9. Codec ID                                 : V_MPEG4/ISO/AVC
  10. Duration                                 : 1 h 41 min
  11. Bit rate                                 : 11.5 Mb/s
  12. Width                                    : 1 920 pixels
  13. Height                                   : 1 036 pixels
  14. Display aspect ratio                     : 1.85:1
  15. Frame rate mode                          : Constant
  16. Frame rate                               : 24.000 FPS
  17. Color space                              : YUV
  18. Chroma subsampling                       : 4:2:0
  19. Bit depth                                : 8 bits
  20. Scan type                                : Progressive
  21. Bits/(Pixel*Frame)                       : 0.241
  22. Stream size                              : 8.11 GiB (88%)
  23. Writing library                          : x264 core 148 r2748 97eaef2
  24. Encoding settings                        : cabac=1 / ref=4 / deblock=1:-2:-2 / analyse=0x3:0x113 / me=umh / subme=9 / psy=1 / psy_rd=1.00:0.15 / mixed_ref=1 / me_range=16 / chroma_me=1 / trellis=2 / 8x8dct=1 / cqm=0 / deadzone=21,11 / fast_pskip=1 / chroma_qp_offset=-3 / threads=72 / lookahead_threads=3 / sliced_threads=0 / nr=0 / decimate=1 / interlaced=0 / bluray_compat=0 / constrained_intra=0 / bframes=3 / b_pyramid=2 / b_adapt=1 / b_bias=0 / direct=3 / weightb=1 / open_gop=0 / weightp=2 / keyint=250 / keyint_min=25 / scenecut=40 / intra_refresh=0 / rc_lookahead=50 / rc=2pass / mbtree=1 / bitrate=11500 / ratetol=1.0 / qcomp=0.60 / qpmin=0 / qpmax=69 / qpstep=4 / cplxblur=20.0 / qblur=0.5 / vbv_maxrate=31250 / vbv_bufsize=31250 / nal_hrd=none / filler=0 / ip_ratio=1.40 / aq=1:1.00
  25. Language                                 : English
  26. Default                                  : Yes
  27. Forced                                   : No
  28. Audio
  29. ID                                       : 2
  30. ID in the original source medium         : 4353 (0x1101)
  31. Format                                   : DTS
  32. Format/Info                              : Digital Theater Systems
  33. Codec ID                                 : A_DTS
  34. Duration                                 : 1 h 41 min
  35. Bit rate mode                            : Constant
  36. Bit rate                                 : 1 509 kb/s
  37. Channel(s)                               : 6 channels
  38. Channel layout                           : C L R Ls Rs LFE
  39. Sampling rate                            : 48.0 kHz
  40. Frame rate                               : 93.750 FPS (512 SPF)
  41. Bit depth                                : 16 bits
  42. Compression mode                         : Lossy
  43. Stream size                              : 1.06 GiB (12%)
  44. Title                                    : DTS 5.1
  45. Language                                 : English
  46. Default                                  : No
  47. Forced                                   : No
  48. Original source medium                   : Blu-ray
  49. Text
  50. ID                                       : 3
  51. Format                                   : UTF-8
  52. Codec ID                                 : S_TEXT/UTF8
  53. Codec ID/Info                            : UTF-8 Plain Text
  54. Duration                                 : 1 h 34 min
  55. Bit rate                                 : 66 b/s
  56. Count of elements                        : 1450
  57. Stream size                              : 45.9 KiB (0%)
  58. Language                                 : English
  59. Default                                  : Yes
  60. Forced                                   : No
  61. Menu
  62. 00:00:00.000                             : Chapter 01
  63. 00:07:29.000                             : Chapter 02
  64. 00:16:02.125                             : Chapter 03
  65. 00:24:03.416                             : Chapter 04
  66. 00:32:46.833                             : Chapter 05
  67. 00:41:04.875                             : Chapter 06
  68. 00:49:26.958                             : Chapter 07
  69. 00:58:38.333                             : Chapter 08
  70. 01:09:15.416                             : Chapter 09
  71. 01:18:12.333                             : Chapter 10
  72. 01:26:45.958                             : Chapter 11
  73. 01:32:50.000                             : Chapter 12
复制代码






                                       
                                       

                                       
                                       
                                       




回复

使用道具 举报

蓝光币
28
发表于 2021-9-16 21:07:39 | 显示全部楼层
看起来不错,不知道怎么样
回复 支持 反对

使用道具 举报

蓝光币
101
发表于 2021-9-17 03:58:12 | 显示全部楼层
看起来不错,不知道怎么样
回复 支持 反对

使用道具 举报

蓝光币
5
发表于 2021-9-18 03:30:14 | 显示全部楼层

楼主太厉害了!楼主,电影应该很好看我觉得蓝光电影网真是个好地方!
回复 支持 反对

使用道具 举报

蓝光币
101
发表于 2021-9-18 04:51:34 | 显示全部楼层
楼主太厉害了!楼主,电影应该很好看我觉得蓝光电影网真是个好地方
回复 支持 反对

使用道具 举报

蓝光币
96
发表于 2021-9-18 07:00:12 | 显示全部楼层

楼主太厉害了!楼主,电影应该很好看我觉得蓝光电影网真是个好地方!
回复 支持 反对

使用道具 举报

蓝光币
37
发表于 2021-9-19 10:40:06 | 显示全部楼层
楼主发贴辛苦了,谢谢楼主分享!我觉得蓝光电影网是注册对了!
回复 支持 反对

使用道具 举报

蓝光币
1
发表于 2021-9-21 13:22:35 | 显示全部楼层

楼主发贴辛苦了,谢谢楼主分享!
回复 支持 反对

使用道具 举报

懒得打字嘛,点击右侧快捷回复 【右侧内容,后台自定义】
您需要登录后才可以回帖 登录 | 立即加入

本版积分规则

Archiver|小黑屋| 蓝光电影网 |网站地图

Copyright © 2021 Comsenz Inc. Powered by 蓝光电影网

蓝光电影网

本站内容由用户自主分享和转载自互联网,转载目的在于传递更多信息,并不代表本网赞同其观点和对其真实性负责。

如有侵权、违反国家法律政策行为,请联系我们,我们会第一时间及时清除和处理!

举报反馈邮箱:[email protected]

快速回复 返回顶部 返回列表