找回密码

蓝光电影网

查看: 94|回复: 0

[喜剧] 绿行星 The.Green.Planet.1996.FRENCH.1080p.NF.WEBRip.DDP2.0.x264-playWEB 4.82GB

[复制链接]
蓝光币
513
发表于 2021-9-16 23:26:09 | 显示全部楼层 |阅读模式


◎译  名 绿行星
◎片  名 La Belle verte
◎年  代 1996
◎产  地 法国
◎类  别 笑剧 / 科幻
◎语  言 法语
◎上映日期 1996-09-18
◎豆瓣评分 8.4/10 from 951 users
◎豆瓣链接 https://movie.douban.com/subject/2038228/
◎片  长 99 分钟
◎导  演 柯琳娜·塞罗 Coline Serreau
◎编  剧 柯琳娜·塞罗 Coline Serreau
◎主  演 柯琳娜·塞罗 Coline Serreau
       文森特·林顿 Vincent Lindon
       玛丽昂·歌迪亚 Marion Cotillard
       詹姆斯·提瑞 James Thiérrée
       卡特琳·萨米 Catherine Samie
       菲利平·勒鲁瓦-博利约 Philippine Leroy-Beaulieu
       弗朗西斯·佩兰 Francis Perrin
       洛莱拉·克拉沃塔 Lorella Cravotta
       Nino Gauzy Nino Gauzy
       帕特里克·坦西 Patrick Timsit
       Alexis Pivot Alexis Pivot
       阿利亚·提西里 Aurélia Thiérrée
       保罗·克罗谢 Paul Crauchet
       阿尔梅尔 Armelle
       德尼·波达利德斯 Denis Podalydès
       克莱尔·凯姆 Claire Keim
       友兰达·梦露 Yolande Moreau
       狄迪尔·弗拉蒙 Didier Flamand
       雅克·普瓦特勒诺 Jacques Poitrenaud
◎标  签 法国 | 笑剧 | 科幻 | 法国电影 | 灵性 | 1996 | 绿行星 | 环保
◎简  介


  在一个叫做La Belle Verte 的星球上(在澳大利亚拍摄的),生在世跟地球上的人类一样的人,只是他们满是素食,过着和谐、简单、欢畅、长寿的生活,他们的天下是美丽和充实的;其中有个叫米拉的母亲,其父亲归天时说她的母亲来自地球,那时生下米拉时归天,米拉决议去地球领会她母亲的天下。她下降在法国,起头了一系列对地球上人类生活的‘探险’。
  1. Video
  2. ID                                       : 1
  3. Format                                   : AVC
  4. Format/Info                              : Advanced Video Codec
  5. Format profile                           : [email protected]
  6. Format settings                          : CABAC / 4 Ref Frames
  7. Format settings, CABAC                   : Yes
  8. Format settings, Reference frames        : 4 frames
  9. Codec ID                                 : V_MPEG4/ISO/AVC
  10. Duration                                 : 1 h 33 min
  11. Bit rate mode                            : Variable
  12. Bit rate                                 : 7 234 kb/s
  13. Maximum bit rate                         : 20.0 Mb/s
  14. Width                                    : 1 920 pixels
  15. Height                                   : 1 080 pixels
  16. Display aspect ratio                     : 16:9
  17. Frame rate mode                          : Constant
  18. Frame rate                               : 24.000 FPS
  19. Color space                              : YUV
  20. Chroma subsampling                       : 4:2:0
  21. Bit depth                                : 8 bits
  22. Scan type                                : Progressive
  23. Bits/(Pixel*Frame)                       : 0.145
  24. Stream size                              : 4.73 GiB (98%)
  25. Writing library                          : x264 core 148 r2722 1b0121b
  26. Encoding settings                        : cabac=1 / ref=4 / deblock=1:0:0 / analyse=0x3:0x111 / me=umh / subme=10 / psy=1 / psy_rd=1.00:0.00 / mixed_ref=1 / me_range=120 / chroma_me=1 / trellis=2 / 8x8dct=1 / cqm=0 / deadzone=21,11 / fast_pskip=1 / chroma_qp_offset=-2 / threads=6 / lookahead_threads=1 / sliced_threads=0 / nr=0 / decimate=1 / interlaced=0 / bluray_compat=0 / stitchable=1 / constrained_intra=0 / bframes=16 / b_pyramid=2 / b_adapt=2 / b_bias=0 / direct=3 / weightb=1 / open_gop=0 / weightp=2 / keyint=240 / keyint_min=121 / scenecut=0 / intra_refresh=0 / rc_lookahead=240 / rc=crf / mbtree=1 / crf=20.0 / qcomp=0.50 / qpmin=6 / qpmax=51 / qpstep=4 / vbv_maxrate=20000 / vbv_bufsize=25000 / crf_max=0.0 / nal_hrd=vbr / filler=0 / ip_ratio=1.40 / aq=1:0.80
  27. Default                                  : Yes
  28. Forced                                   : No
  29. Audio
  30. ID                                       : 2
  31. Format                                   : E-AC-3
  32. Format/Info                              : Enhanced AC-3
  33. Commercial name                          : Dolby Digital Plus
  34. Codec ID                                 : A_EAC3
  35. Duration                                 : 1 h 33 min
  36. Bit rate mode                            : Constant
  37. Bit rate                                 : 128 kb/s
  38. Channel(s)                               : 2 channels
  39. Channel layout                           : L R
  40. Sampling rate                            : 48.0 kHz
  41. Frame rate                               : 31.250 FPS (1536 SPF)
  42. Compression mode                         : Lossy
  43. Stream size                              : 85.7 MiB (2%)
  44. Title                                    : French
  45. Language                                 : French
  46. Service kind                             : Complete Main
  47. Default                                  : No
  48. Forced                                   : No
  49. Text #1
  50. ID                                       : 3
  51. Format                                   : UTF-8
  52. Codec ID                                 : S_TEXT/UTF8
  53. Codec ID/Info                            : UTF-8 Plain Text
  54. Duration                                 : 1 h 23 min
  55. Bit rate                                 : 48 b/s
  56. Count of elements                        : 1145
  57. Stream size                              : 29.3 KiB (0%)
  58. Title                                    : English
  59. Language                                 : English
  60. Default                                  : No
  61. Forced                                   : No
  62. Text #2
  63. ID                                       : 4
  64. Format                                   : UTF-8
  65. Codec ID                                 : S_TEXT/UTF8
  66. Codec ID/Info                            : UTF-8 Plain Text
  67. Duration                                 : 1 h 28 min
  68. Bit rate                                 : 42 b/s
  69. Count of elements                        : 1143
  70. Stream size                              : 27.9 KiB (0%)
  71. Title                                    : Croatian
  72. Language                                 : Croatian
  73. Default                                  : No
  74. Forced                                   : No
  75. Text #3
  76. ID                                       : 5
  77. Format                                   : UTF-8
  78. Codec ID                                 : S_TEXT/UTF8
  79. Codec ID/Info                            : UTF-8 Plain Text
  80. Duration                                 : 1 h 28 min
  81. Bit rate                                 : 46 b/s
  82. Count of elements                        : 1143
  83. Stream size                              : 30.4 KiB (0%)
  84. Title                                    : Czech
  85. Language                                 : Czech
  86. Default                                  : No
  87. Forced                                   : No
  88. Text #4
  89. ID                                       : 6
  90. Format                                   : UTF-8
  91. Codec ID                                 : S_TEXT/UTF8
  92. Codec ID/Info                            : UTF-8 Plain Text
  93. Duration                                 : 1 h 28 min
  94. Bit rate                                 : 48 b/s
  95. Count of elements                        : 1124
  96. Stream size                              : 31.3 KiB (0%)
  97. Title                                    : Danish
  98. Language                                 : Danish
  99. Default                                  : No
  100. Forced                                   : No
  101. Text #5
  102. ID                                       : 7
  103. Format                                   : UTF-8
  104. Codec ID                                 : S_TEXT/UTF8
  105. Codec ID/Info                            : UTF-8 Plain Text
  106. Duration                                 : 1 h 28 min
  107. Bit rate                                 : 50 b/s
  108. Count of elements                        : 1050
  109. Stream size                              : 33.0 KiB (0%)
  110. Title                                    : Dutch
  111. Language                                 : Dutch
  112. Default                                  : No
  113. Forced                                   : No
  114. Text #6
  115. ID                                       : 8
  116. Format                                   : UTF-8
  117. Codec ID                                 : S_TEXT/UTF8
  118. Codec ID/Info                            : UTF-8 Plain Text
  119. Duration                                 : 1 h 28 min
  120. Bit rate                                 : 50 b/s
  121. Count of elements                        : 1143
  122. Stream size                              : 32.5 KiB (0%)
  123. Title                                    : Finnish
  124. Language                                 : Finnish
  125. Default                                  : No
  126. Forced                                   : No
  127. Text #7
  128. ID                                       : 9
  129. Format                                   : UTF-8
  130. Codec ID                                 : S_TEXT/UTF8
  131. Codec ID/Info                            : UTF-8 Plain Text
  132. Duration                                 : 1 h 32 min
  133. Bit rate                                 : 99 b/s
  134. Count of elements                        : 1358
  135. Stream size                              : 67.3 KiB (0%)
  136. Title                                    : French
  137. Language                                 : French
  138. Default                                  : No
  139. Forced                                   : No
  140. Text #8
  141. ID                                       : 10
  142. Format                                   : UTF-8
  143. Codec ID                                 : S_TEXT/UTF8
  144. Codec ID/Info                            : UTF-8 Plain Text
  145. Duration                                 : 46 min 15 s
  146. Bit rate                                 : 0 b/s
  147. Count of elements                        : 6
  148. Stream size                              : 211 Bytes (0%)
  149. Title                                    : Forced
  150. Language                                 : French
  151. Default                                  : No
  152. Forced                                   : Yes
  153. Text #9
  154. ID                                       : 11
  155. Format                                   : UTF-8
  156. Codec ID                                 : S_TEXT/UTF8
  157. Codec ID/Info                            : UTF-8 Plain Text
  158. Duration                                 : 1 h 28 min
  159. Bit rate                                 : 76 b/s
  160. Count of elements                        : 1118
  161. Stream size                              : 50.0 KiB (0%)
  162. Title                                    : Greek
  163. Language                                 : Greek
  164. Default                                  : No
  165. Forced                                   : No
  166. Text #10
  167. ID                                       : 12
  168. Format                                   : UTF-8
  169. Codec ID                                 : S_TEXT/UTF8
  170. Codec ID/Info                            : UTF-8 Plain Text
  171. Duration                                 : 1 h 28 min
  172. Bit rate                                 : 49 b/s
  173. Count of elements                        : 1136
  174. Stream size                              : 31.9 KiB (0%)
  175. Title                                    : Hungarian
  176. Language                                 : Hungarian
  177. Default                                  : No
  178. Forced                                   : No
  179. Text #11
  180. ID                                       : 13
  181. Format                                   : UTF-8
  182. Codec ID                                 : S_TEXT/UTF8
  183. Codec ID/Info                            : UTF-8 Plain Text
  184. Duration                                 : 1 h 28 min
  185. Bit rate                                 : 48 b/s
  186. Count of elements                        : 1145
  187. Stream size                              : 31.5 KiB (0%)
  188. Title                                    : Italian
  189. Language                                 : Italian
  190. Default                                  : No
  191. Forced                                   : No
  192. Text #12
  193. ID                                       : 14
  194. Format                                   : UTF-8
  195. Codec ID                                 : S_TEXT/UTF8
  196. Codec ID/Info                            : UTF-8 Plain Text
  197. Duration                                 : 1 h 28 min
  198. Bit rate                                 : 45 b/s
  199. Count of elements                        : 1145
  200. Stream size                              : 29.6 KiB (0%)
  201. Title                                    : Norwegian Bokmal
  202. Language                                 : Norwegian Bokmal
  203. Default                                  : No
  204. Forced                                   : No
  205. Text #13
  206. ID                                       : 15
  207. Format                                   : UTF-8
  208. Codec ID                                 : S_TEXT/UTF8
  209. Codec ID/Info                            : UTF-8 Plain Text
  210. Duration                                 : 1 h 28 min
  211. Bit rate                                 : 52 b/s
  212. Count of elements                        : 1109
  213. Stream size                              : 33.8 KiB (0%)
  214. Title                                    : Portuguese
  215. Language                                 : Portuguese
  216. Default                                  : No
  217. Forced                                   : No
  218. Text #14
  219. ID                                       : 16
  220. Format                                   : UTF-8
  221. Codec ID                                 : S_TEXT/UTF8
  222. Codec ID/Info                            : UTF-8 Plain Text
  223. Duration                                 : 1 h 28 min
  224. Bit rate                                 : 46 b/s
  225. Count of elements                        : 1131
  226. Stream size                              : 30.5 KiB (0%)
  227. Title                                    : Romanian
  228. Language                                 : Romanian
  229. Default                                  : No
  230. Forced                                   : No
  231. Text #15
  232. ID                                       : 17
  233. Format                                   : UTF-8
  234. Codec ID                                 : S_TEXT/UTF8
  235. Codec ID/Info                            : UTF-8 Plain Text
  236. Duration                                 : 1 h 28 min
  237. Bit rate                                 : 75 b/s
  238. Count of elements                        : 1139
  239. Stream size                              : 49.2 KiB (0%)
  240. Title                                    : Russian
  241. Language                                 : Russian
  242. Default                                  : No
  243. Forced                                   : No
  244. Text #16
  245. ID                                       : 18
  246. Format                                   : UTF-8
  247. Codec ID                                 : S_TEXT/UTF8
  248. Codec ID/Info                            : UTF-8 Plain Text
  249. Duration                                 : 1 h 28 min
  250. Bit rate                                 : 53 b/s
  251. Count of elements                        : 1145
  252. Stream size                              : 34.8 KiB (0%)
  253. Title                                    : European Spanish
  254. Language                                 : Spanish
  255. Default                                  : No
  256. Forced                                   : No
  257. Text #17
  258. ID                                       : 19
  259. Format                                   : UTF-8
  260. Codec ID                                 : S_TEXT/UTF8
  261. Codec ID/Info                            : UTF-8 Plain Text
  262. Duration                                 : 1 h 28 min
  263. Bit rate                                 : 56 b/s
  264. Count of elements                        : 1138
  265. Stream size                              : 36.5 KiB (0%)
  266. Title                                    : Swedish
  267. Language                                 : Swedish
  268. Default                                  : No
  269. Forced                                   : No
复制代码





                                       
                                       

                                       
                                       
                                       




回复

使用道具 举报

懒得打字嘛,点击右侧快捷回复 【右侧内容,后台自定义】
您需要登录后才可以回帖 登录 | 立即加入

本版积分规则

Archiver|小黑屋| 蓝光电影网 |网站地图

Copyright © 2021 Comsenz Inc. Powered by 蓝光电影网

蓝光电影网

本站内容由用户自主分享和转载自互联网,转载目的在于传递更多信息,并不代表本网赞同其观点和对其真实性负责。

如有侵权、违反国家法律政策行为,请联系我们,我们会第一时间及时清除和处理!

举报反馈邮箱:[email protected]

快速回复 返回顶部 返回列表