找回密码

蓝光电影网

查看: 76|回复: 0

[其他] 我的牛仔英雄梦 My.Heroes.Were.Cowboys.2021.1080p.NF.WEBRip.DDP5.1.x264-NPMS 659.05MB

[复制链接]
蓝光币
513
发表于 2021-9-16 23:24:26 | 显示全部楼层 |阅读模式


◎译  名 我的牛仔豪杰梦
◎片  名 My Heroes Were Cowboys
◎年  代 2021
◎产  地 美国
◎类  别 记载片 / 短片
◎语  言 英语
◎上映日期 2021-09-16(美国)
◎豆瓣评分 /10 from 0 users
◎豆瓣链接 https://movie.douban.com/subject/35580153/
◎片  长 22分钟
◎简  介


  暂无相关剧情先容
  1. Video
  2. ID                                       : 1
  3. Format                                   : AVC
  4. Format/Info                              : Advanced Video Codec
  5. Format profile                           : [email protected]
  6. Format settings                          : CABAC / 3 Ref Frames
  7. Format settings, CABAC                   : Yes
  8. Format settings, Reference frames        : 3 frames
  9. Codec ID                                 : V_MPEG4/ISO/AVC
  10. Duration                                 : 23 min 1 s
  11. Bit rate mode                            : Variable
  12. Bit rate                                 : 3 547 kb/s
  13. Nominal bit rate                         : 3 169 kb/s
  14. Maximum bit rate                         : 6 960 kb/s
  15. Width                                    : 1 920 pixels
  16. Height                                   : 1 080 pixels
  17. Display aspect ratio                     : 16:9
  18. Frame rate mode                          : Constant
  19. Frame rate                               : 23.976 (24000/1001/189150) FPS
  20. Color space                              : YUV
  21. Chroma subsampling                       : 4:2:0
  22. Bit depth                                : 8 bits
  23. Scan type                                : Progressive
  24. Bits/(Pixel*Frame)                       : 0.071
  25. Stream size                              : 584 MiB (89%)
  26. Writing library                          : x264 core 148 r2722 1b0121b
  27. Encoding settings                        : cabac=1 / ref=3 / deblock=1:0:0 / analyse=0x1:0x111 / me=umh / subme=10 / psy=1 / psy_rd=1.00:0.00 / mixed_ref=1 / me_range=24 / chroma_me=1 / trellis=2 / 8x8dct=0 / cqm=0 / deadzone=21,11 / fast_pskip=1 / chroma_qp_offset=-2 / threads=8 / lookahead_threads=1 / sliced_threads=0 / nr=0 / decimate=1 / interlaced=0 / bluray_compat=0 / stitchable=1 / constrained_intra=0 / bframes=2 / b_pyramid=0 / b_adapt=2 / b_bias=0 / direct=3 / weightb=1 / open_gop=0 / weightp=2 / keyint=250 / keyint_min=23 / scenecut=0 / intra_refresh=0 / rc_lookahead=48 / rc=2pass / mbtree=1 / bitrate=3169 / ratetol=1.0 / qcomp=0.50 / qpmin=6 / qpmax=51 / qpstep=4 / cplxblur=20.0 / qblur=0.5 / vbv_maxrate=6960 / vbv_bufsize=9280 / nal_hrd=vbr / filler=0 / ip_ratio=1.40 / aq=1:1.00
  28. Default                                  : Yes
  29. Forced                                   : No
  30. Audio
  31. ID                                       : 2
  32. Format                                   : E-AC-3
  33. Format/Info                              : Enhanced AC-3
  34. Commercial name                          : Dolby Digital Plus
  35. Codec ID                                 : A_EAC3
  36. Duration                                 : 23 min 2 s
  37. Bit rate mode                            : Constant
  38. Bit rate                                 : 448 kb/s
  39. Channel(s)                               : 6 channels
  40. Channel layout                           : L R C LFE Ls Rs
  41. Sampling rate                            : 48.0 kHz
  42. Frame rate                               : 31.250 FPS (1536 SPF)
  43. Compression mode                         : Lossy
  44. Stream size                              : 73.8 MiB (11%)
  45. Title                                    : English
  46. Language                                 : English
  47. Service kind                             : Complete Main
  48. Default                                  : No
  49. Forced                                   : No
  50. Text #1
  51. ID                                       : 3
  52. Format                                   : UTF-8
  53. Codec ID                                 : S_TEXT/UTF8
  54. Codec ID/Info                            : UTF-8 Plain Text
  55. Duration                                 : 21 min 6 s
  56. Bit rate                                 : 86 b/s
  57. Count of elements                        : 283
  58. Stream size                              : 13.4 KiB (0%)
  59. Title                                    : English
  60. Language                                 : English
  61. Default                                  : No
  62. Forced                                   : No
  63. Text #2
  64. ID                                       : 4
  65. Format                                   : UTF-8
  66. Codec ID                                 : S_TEXT/UTF8
  67. Codec ID/Info                            : UTF-8 Plain Text
  68. Duration                                 : 21 min 48 s
  69. Bit rate                                 : 85 b/s
  70. Count of elements                        : 260
  71. Stream size                              : 13.7 KiB (0%)
  72. Title                                    : Arabic
  73. Language                                 : Arabic
  74. Default                                  : No
  75. Forced                                   : No
  76. Text #3
  77. ID                                       : 5
  78. Format                                   : UTF-8
  79. Codec ID                                 : S_TEXT/UTF8
  80. Codec ID/Info                            : UTF-8 Plain Text
  81. Duration                                 : 21 min 49 s
  82. Bit rate                                 : 53 b/s
  83. Count of elements                        : 263
  84. Stream size                              : 8.62 KiB (0%)
  85. Title                                    : Chinese Simplified
  86. Language                                 : Chinese
  87. Default                                  : No
  88. Forced                                   : No
  89. Text #4
  90. ID                                       : 6
  91. Format                                   : UTF-8
  92. Codec ID                                 : S_TEXT/UTF8
  93. Codec ID/Info                            : UTF-8 Plain Text
  94. Duration                                 : 21 min 49 s
  95. Bit rate                                 : 49 b/s
  96. Count of elements                        : 263
  97. Stream size                              : 7.86 KiB (0%)
  98. Title                                    : Chinese Traditional
  99. Language                                 : Chinese
  100. Default                                  : No
  101. Forced                                   : No
  102. Text #5
  103. ID                                       : 7
  104. Format                                   : UTF-8
  105. Codec ID                                 : S_TEXT/UTF8
  106. Codec ID/Info                            : UTF-8 Plain Text
  107. Duration                                 : 20 min 39 s
  108. Bit rate                                 : 55 b/s
  109. Count of elements                        : 255
  110. Stream size                              : 8.47 KiB (0%)
  111. Title                                    : Croatian
  112. Language                                 : Croatian
  113. Default                                  : No
  114. Forced                                   : No
  115. Text #6
  116. ID                                       : 8
  117. Format                                   : UTF-8
  118. Codec ID                                 : S_TEXT/UTF8
  119. Codec ID/Info                            : UTF-8 Plain Text
  120. Duration                                 : 21 min 49 s
  121. Bit rate                                 : 51 b/s
  122. Count of elements                        : 251
  123. Stream size                              : 8.20 KiB (0%)
  124. Title                                    : Czech
  125. Language                                 : Czech
  126. Default                                  : No
  127. Forced                                   : No
  128. Text #7
  129. ID                                       : 9
  130. Format                                   : UTF-8
  131. Codec ID                                 : S_TEXT/UTF8
  132. Codec ID/Info                            : UTF-8 Plain Text
  133. Duration                                 : 21 min 49 s
  134. Bit rate                                 : 57 b/s
  135. Count of elements                        : 259
  136. Stream size                              : 9.12 KiB (0%)
  137. Title                                    : Danish
  138. Language                                 : Danish
  139. Default                                  : No
  140. Forced                                   : No
  141. Text #8
  142. ID                                       : 10
  143. Format                                   : UTF-8
  144. Codec ID                                 : S_TEXT/UTF8
  145. Codec ID/Info                            : UTF-8 Plain Text
  146. Duration                                 : 21 min 49 s
  147. Bit rate                                 : 52 b/s
  148. Count of elements                        : 255
  149. Stream size                              : 8.39 KiB (0%)
  150. Title                                    : Dutch
  151. Language                                 : Dutch
  152. Default                                  : No
  153. Forced                                   : No
  154. Text #9
  155. ID                                       : 11
  156. Format                                   : UTF-8
  157. Codec ID                                 : S_TEXT/UTF8
  158. Codec ID/Info                            : UTF-8 Plain Text
  159. Duration                                 : 21 min 53 s
  160. Bit rate                                 : 56 b/s
  161. Count of elements                        : 214
  162. Stream size                              : 9.00 KiB (0%)
  163. Title                                    : Finnish
  164. Language                                 : Finnish
  165. Default                                  : No
  166. Forced                                   : No
  167. Text #10
  168. ID                                       : 12
  169. Format                                   : UTF-8
  170. Codec ID                                 : S_TEXT/UTF8
  171. Codec ID/Info                            : UTF-8 Plain Text
  172. Duration                                 : 21 min 49 s
  173. Bit rate                                 : 62 b/s
  174. Count of elements                        : 260
  175. Stream size                              : 9.97 KiB (0%)
  176. Title                                    : French
  177. Language                                 : French
  178. Default                                  : No
  179. Forced                                   : No
  180. Text #11
  181. ID                                       : 13
  182. Format                                   : UTF-8
  183. Codec ID                                 : S_TEXT/UTF8
  184. Codec ID/Info                            : UTF-8 Plain Text
  185. Duration                                 : 20 min 39 s
  186. Bit rate                                 : 69 b/s
  187. Count of elements                        : 240
  188. Stream size                              : 10.6 KiB (0%)
  189. Title                                    : German
  190. Language                                 : German
  191. Default                                  : No
  192. Forced                                   : No
  193. Text #12
  194. ID                                       : 14
  195. Format                                   : UTF-8
  196. Codec ID                                 : S_TEXT/UTF8
  197. Codec ID/Info                            : UTF-8 Plain Text
  198. Duration                                 : 21 min 49 s
  199. Bit rate                                 : 92 b/s
  200. Count of elements                        : 256
  201. Stream size                              : 14.8 KiB (0%)
  202. Title                                    : Greek
  203. Language                                 : Greek
  204. Default                                  : No
  205. Forced                                   : No
  206. Text #13
  207. ID                                       : 15
  208. Format                                   : UTF-8
  209. Codec ID                                 : S_TEXT/UTF8
  210. Codec ID/Info                            : UTF-8 Plain Text
  211. Duration                                 : 21 min 52 s
  212. Bit rate                                 : 86 b/s
  213. Count of elements                        : 258
  214. Stream size                              : 13.9 KiB (0%)
  215. Title                                    : Hebrew
  216. Language                                 : Hebrew
  217. Default                                  : No
  218. Forced                                   : No
  219. Text #14
  220. ID                                       : 16
  221. Format                                   : UTF-8
  222. Codec ID                                 : S_TEXT/UTF8
  223. Codec ID/Info                            : UTF-8 Plain Text
  224. Duration                                 : 21 min 52 s
  225. Bit rate                                 : 62 b/s
  226. Count of elements                        : 262
  227. Stream size                              : 9.99 KiB (0%)
  228. Title                                    : Hungarian
  229. Language                                 : Hungarian
  230. Default                                  : No
  231. Forced                                   : No
  232. Text #15
  233. ID                                       : 17
  234. Format                                   : UTF-8
  235. Codec ID                                 : S_TEXT/UTF8
  236. Codec ID/Info                            : UTF-8 Plain Text
  237. Duration                                 : 21 min 49 s
  238. Bit rate                                 : 62 b/s
  239. Count of elements                        : 261
  240. Stream size                              : 9.93 KiB (0%)
  241. Title                                    : Indonesian
  242. Language                                 : Indonesian
  243. Default                                  : No
  244. Forced                                   : No
  245. Text #16
  246. ID                                       : 18
  247. Format                                   : UTF-8
  248. Codec ID                                 : S_TEXT/UTF8
  249. Codec ID/Info                            : UTF-8 Plain Text
  250. Duration                                 : 21 min 56 s
  251. Bit rate                                 : 45 b/s
  252. Count of elements                        : 253
  253. Stream size                              : 7.33 KiB (0%)
  254. Title                                    : Italian
  255. Language                                 : Italian
  256. Default                                  : No
  257. Forced                                   : No
  258. Text #17
  259. ID                                       : 19
  260. Format                                   : UTF-8
  261. Codec ID                                 : S_TEXT/UTF8
  262. Codec ID/Info                            : UTF-8 Plain Text
  263. Duration                                 : 21 min 49 s
  264. Bit rate                                 : 53 b/s
  265. Count of elements                        : 198
  266. Stream size                              : 8.47 KiB (0%)
  267. Title                                    : Japanese
  268. Language                                 : Japanese
  269. Default                                  : No
  270. Forced                                   : No
  271. Text #18
  272. ID                                       : 20
  273. Format                                   : UTF-8
  274. Codec ID                                 : S_TEXT/UTF8
  275. Codec ID/Info                            : UTF-8 Plain Text
  276. Duration                                 : 21 min 54 s
  277. Bit rate                                 : 66 b/s
  278. Count of elements                        : 265
  279. Stream size                              : 10.7 KiB (0%)
  280. Title                                    : Korean
  281. Language                                 : Korean
  282. Default                                  : No
  283. Forced                                   : No
  284. Text #19
  285. ID                                       : 21
  286. Format                                   : UTF-8
  287. Codec ID                                 : S_TEXT/UTF8
  288. Codec ID/Info                            : UTF-8 Plain Text
  289. Duration                                 : 21 min 56 s
  290. Bit rate                                 : 59 b/s
  291. Count of elements                        : 256
  292. Stream size                              : 9.53 KiB (0%)
  293. Title                                    : Malay
  294. Language                                 : Malay
  295. Default                                  : No
  296. Forced                                   : No
  297. Text #20
  298. ID                                       : 22
  299. Format                                   : UTF-8
  300. Codec ID                                 : S_TEXT/UTF8
  301. Codec ID/Info                            : UTF-8 Plain Text
  302. Duration                                 : 21 min 53 s
  303. Bit rate                                 : 56 b/s
  304. Count of elements                        : 220
  305. Stream size                              : 9.13 KiB (0%)
  306. Title                                    : Norwegian Bokmal
  307. Language                                 : Norwegian Bokmal
  308. Default                                  : No
  309. Forced                                   : No
  310. Text #21
  311. ID                                       : 23
  312. Format                                   : UTF-8
  313. Codec ID                                 : S_TEXT/UTF8
  314. Codec ID/Info                            : UTF-8 Plain Text
  315. Duration                                 : 21 min 49 s
  316. Bit rate                                 : 57 b/s
  317. Count of elements                        : 239
  318. Stream size                              : 9.26 KiB (0%)
  319. Title                                    : Polish
  320. Language                                 : Polish
  321. Default                                  : No
  322. Forced                                   : No
  323. Text #22
  324. ID                                       : 24
  325. Format                                   : UTF-8
  326. Codec ID                                 : S_TEXT/UTF8
  327. Codec ID/Info                            : UTF-8 Plain Text
  328. Duration                                 : 21 min 49 s
  329. Bit rate                                 : 63 b/s
  330. Count of elements                        : 247
  331. Stream size                              : 10.1 KiB (0%)
  332. Title                                    : Portuguese
  333. Language                                 : Portuguese
  334. Default                                  : No
  335. Forced                                   : No
  336. Text #23
  337. ID                                       : 25
  338. Format                                   : UTF-8
  339. Codec ID                                 : S_TEXT/UTF8
  340. Codec ID/Info                            : UTF-8 Plain Text
  341. Duration                                 : 21 min 49 s
  342. Bit rate                                 : 57 b/s
  343. Count of elements                        : 259
  344. Stream size                              : 9.25 KiB (0%)
  345. Title                                    : Brazilian Portuguese
  346. Language                                 : Portuguese
  347. Default                                  : No
  348. Forced                                   : No
  349. Text #24
  350. ID                                       : 26
  351. Format                                   : UTF-8
  352. Codec ID                                 : S_TEXT/UTF8
  353. Codec ID/Info                            : UTF-8 Plain Text
  354. Duration                                 : 21 min 49 s
  355. Bit rate                                 : 64 b/s
  356. Count of elements                        : 247
  357. Stream size                              : 10.3 KiB (0%)
  358. Title                                    : Romanian
  359. Language                                 : Romanian
  360. Default                                  : No
  361. Forced                                   : No
  362. Text #25
  363. ID                                       : 27
  364. Format                                   : UTF-8
  365. Codec ID                                 : S_TEXT/UTF8
  366. Codec ID/Info                            : UTF-8 Plain Text
  367. Duration                                 : 21 min 49 s
  368. Bit rate                                 : 87 b/s
  369. Count of elements                        : 257
  370. Stream size                              : 14.0 KiB (0%)
  371. Title                                    : Russian
  372. Language                                 : Russian
  373. Default                                  : No
  374. Forced                                   : No
  375. Text #26
  376. ID                                       : 28
  377. Format                                   : UTF-8
  378. Codec ID                                 : S_TEXT/UTF8
  379. Codec ID/Info                            : UTF-8 Plain Text
  380. Duration                                 : 21 min 49 s
  381. Bit rate                                 : 50 b/s
  382. Count of elements                        : 263
  383. Stream size                              : 8.08 KiB (0%)
  384. Title                                    : Spanish
  385. Language                                 : Spanish
  386. Default                                  : No
  387. Forced                                   : No
  388. Text #27
  389. ID                                       : 29
  390. Format                                   : UTF-8
  391. Codec ID                                 : S_TEXT/UTF8
  392. Codec ID/Info                            : UTF-8 Plain Text
  393. Duration                                 : 21 min 49 s
  394. Bit rate                                 : 58 b/s
  395. Count of elements                        : 258
  396. Stream size                              : 9.33 KiB (0%)
  397. Title                                    : European Spanish
  398. Language                                 : Spanish
  399. Default                                  : No
  400. Forced                                   : No
  401. Text #28
  402. ID                                       : 30
  403. Format                                   : UTF-8
  404. Codec ID                                 : S_TEXT/UTF8
  405. Codec ID/Info                            : UTF-8 Plain Text
  406. Duration                                 : 21 min 49 s
  407. Bit rate                                 : 58 b/s
  408. Count of elements                        : 229
  409. Stream size                              : 9.42 KiB (0%)
  410. Title                                    : Swedish
  411. Language                                 : Swedish
  412. Default                                  : No
  413. Forced                                   : No
  414. Text #29
  415. ID                                       : 31
  416. Format                                   : UTF-8
  417. Codec ID                                 : S_TEXT/UTF8
  418. Codec ID/Info                            : UTF-8 Plain Text
  419. Duration                                 : 21 min 49 s
  420. Bit rate                                 : 126 b/s
  421. Count of elements                        : 264
  422. Stream size                              : 20.1 KiB (0%)
  423. Title                                    : Thai
  424. Language                                 : Thai
  425. Default                                  : No
  426. Forced                                   : No
  427. Text #30
  428. ID                                       : 32
  429. Format                                   : UTF-8
  430. Codec ID                                 : S_TEXT/UTF8
  431. Codec ID/Info                            : UTF-8 Plain Text
  432. Duration                                 : 21 min 49 s
  433. Bit rate                                 : 60 b/s
  434. Count of elements                        : 261
  435. Stream size                              : 9.69 KiB (0%)
  436. Title                                    : Turkish
  437. Language                                 : Turkish
  438. Default                                  : No
  439. Forced                                   : No
  440. Text #31
  441. ID                                       : 33
  442. Format                                   : UTF-8
  443. Codec ID                                 : S_TEXT/UTF8
  444. Codec ID/Info                            : UTF-8 Plain Text
  445. Duration                                 : 21 min 49 s
  446. Bit rate                                 : 90 b/s
  447. Count of elements                        : 264
  448. Stream size                              : 14.5 KiB (0%)
  449. Title                                    : Ukrainian
  450. Language                                 : Ukrainian
  451. Default                                  : No
  452. Forced                                   : No
  453. Text #32
  454. ID                                       : 34
  455. Format                                   : UTF-8
  456. Codec ID                                 : S_TEXT/UTF8
  457. Codec ID/Info                            : UTF-8 Plain Text
  458. Duration                                 : 21 min 58 s
  459. Bit rate                                 : 87 b/s
  460. Count of elements                        : 241
  461. Stream size                              : 14.0 KiB (0%)
  462. Title                                    : Vietnamese
  463. Language                                 : Vietnamese
  464. Default                                  : No
  465. Forced                                   : No
复制代码






                                       
                                       

                                       
                                       
                                       




回复

使用道具 举报

懒得打字嘛,点击右侧快捷回复 【右侧内容,后台自定义】
您需要登录后才可以回帖 登录 | 立即加入

本版积分规则

Archiver|小黑屋| 蓝光电影网 |网站地图

Copyright © 2021 Comsenz Inc. Powered by 蓝光电影网

蓝光电影网

本站内容由用户自主分享和转载自互联网,转载目的在于传递更多信息,并不代表本网赞同其观点和对其真实性负责。

如有侵权、违反国家法律政策行为,请联系我们,我们会第一时间及时清除和处理!

举报反馈邮箱:[email protected]

快速回复 返回顶部 返回列表