找回密码

蓝光电影网

查看: 342|回复: 3

[2160p] 哭泣的男人 Cry.Macho.2021.2160p.HMAX.WEB-DL.DD5.1.DV.MP4.x265-FLUX 13.14GB

[复制链接]
蓝光币
513
发表于 2021-9-17 20:30:12 | 显示全部楼层 |阅读模式


◎译  名 抽泣的汉子
◎片  名 Cry Macho
◎年  代 2021
◎产  地 美国
◎类  别 剧情 / 惊悚 / 西部
◎语  言 英语
◎上映日期 2021-09-17(美国/美国收集)
◎豆瓣评分 /10 from 0 users
◎豆瓣链接 https://movie.douban.com/subject/10523152/
◎片  长 104分钟
◎导  演 克林特·伊斯特伍德 Clint Eastwood
◎编  剧 N·理查德·纳什 N. Richard Nash / 尼克·申克 Nick Schenk
◎主  演 克林特·伊斯特伍德 Clint Eastwood
       德怀特·尤科姆 Dwight Yoakam
       费兰达·乌雷霍拉 Fernanda Urrejola
       霍拉西欧·加西亚·罗哈斯 Horacio Garcia Rojas
       丹尼尔V·格拉劳 Daniel V. Graulau
       保罗·阿拉约 Paul Alayo
       娜塔莉娅·特拉文 Natalia Traven
       萨罗·索利斯 Saro Solis
◎标  签 克林特·伊斯特伍德 | 东木大爷 | 美国 | ClintEastwood | 剧情 | 2021 | 美国电影 | 惊悚
◎简  介


  影片报告了一位驯马师为了养老金和自己破产的牧场老板告竣协议,从老板富有的墨西哥前妻那边绑架老板11岁的儿子以索要赎金。但是老板的前妻正为这个不良少年头疼,恨不得抛弃这个负担,工作朝着料想之外的偏向成长……
  1. Video
  2. ID                                       : 1
  3. Format                                   : HEVC
  4. Format/Info                              : High Efficiency Video Coding
  5. Format profile                           : Main [email protected]@Main
  6. HDR format                               : Dolby Vision, Version 1.0, dvhe.05.06, BL+RPU
  7. Codec ID                                 : dvhe
  8. Codec ID/Info                            : High Efficiency Video Coding with Dolby Vision
  9. Duration                                 : 1 h 43 min
  10. Bit rate                                 : 17.7 Mb/s
  11. Width                                    : 3 840 pixels
  12. Height                                   : 2 160 pixels
  13. Display aspect ratio                     : 16:9
  14. Frame rate mode                          : Constant
  15. Frame rate                               : 23.976 (24000/1001/189150) FPS
  16. Color space                              : YUV
  17. Chroma subsampling                       : 4:2:0
  18. Bit depth                                : 10 bits
  19. Bits/(Pixel*Frame)                       : 0.089
  20. Stream size                              : 12.9 GiB (98%)
  21. Writing library                          : x265 3.4hy:[Linux][GCC 7.5.0][64 bit] 10bit
  22. Encoding settings                        : cpuid=1111039 / frame-threads=6 / no-wpp / no-pmode / no-pme / no-psnr / no-ssim / log-level=2 / input-csp=1 / input-res=3840x2160 / interlace=0 / total-frames=0 / level-idc=0 / high-tier=1 / uhd-bd=0 / ref=4 / no-allow-non-conformance / repeat-headers / annexb / aud / hrd / info / hash=0 / no-temporal-layers / no-open-gop / min-keyint=96 / keyint=96 / gop-lookahead=0 / bframes=4 / b-adapt=2 / b-pyramid / bframe-bias=0 / rc-lookahead=25 / lookahead-slices=4 / scenecut=40 / hist-scenecut=0 / radl=0 / no-splice / no-intra-refresh / ctu=64 / min-cu-size=8 / rect / no-amp / max-tu-size=32 / tu-inter-depth=1 / tu-intra-depth=1 / limit-tu=0 / rdoq-level=2 / dynamic-rd=0.00 / no-ssim-rd / signhide / no-tskip / nr-intra=0 / nr-inter=0 / no-constrained-intra / strong-intra-smoothing / max-merge=3 / limit-refs=3 / limit-modes / me=3 / subme=3 / merange=57 / temporal-mvp / no-frame-dup / no-hme / weightp / no-weightb / no-analyze-src-pics / deblock=0:0 / sao / no-sao-non-deblock / rd=4 / selective-sao=4 / no-early-skip / rskip / no-fast-intra / no-tskip-fast / no-cu-lossless / no-b-intra / no-splitrd-skip / rdpenalty=0 / psy-rd=2.00 / psy-rdoq=1.00 / no-rd-refine / no-lossless / cbqpoffs=0 / crqpoffs=3 / rc=abr / bitrate=18000 / qcomp=0.60 / qpstep=4 / stats-write=0 / stats-read=2 / cplxblur=20.0 / qblur=0.5 / vbv-maxrate=24500 / vbv-bufsize=24500 / vbv-init=0.6 / vbv-end=0.6 / vbv-end-fr-adj=0.0 / ipratio=1.40 / pbratio=1.30 / aq-mode=2 / aq-strength=1.00 / cutree / zone-count=0 / no-strict-cbr / qg-size=32 / no-rc-grain / qpmax=69 / qpmin=0 / no-const-vbv / sar=1 / overscan=0 / videoformat=5 / range=1 / colorprim=2 / transfer=2 / colormatrix=2 / chromaloc=0 / display-window=0 / cll=0,0 / min-luma=0 / max-luma=1023 / log2-max-poc-lsb=8 / vui-timing-info / vui-hrd-info / no-concatenation / slices=1 / no-opt-qp-pps / no-opt-ref-list-length-pps / no-multi-pass-opt-rps / scenecut-bias=0.05 / hist-threshold=0.01 / no-opt-cu-delta-qp / no-aq-motion / no-hdr10 / no-hdr10-opt / no-dhdr10-opt / no-idr-recovery-sei / analysis-reuse-level=0 / analysis-save-reuse-level=0 / analysis-load-reuse-level=0 / scale-factor=0 / refine-intra=0 / refine-inter=0 / refine-mv=1 / refine-ctu-distortion=0 / no-limit-sao / ctu-info=0 / no-lowpass-dct / refine-analysis-type=0 / copy-pic=1 / max-ausize-factor=1.0 / no-dynamic-refine / no-single-sei / no-hevc-aq / no-svt / no-field / qp-adaptation-range=1.00 / no-scenecut-aware-qpconformance-window-offsets / right=0 / bottom=0 / decoder-max-rate=0
  23. Default                                  : Yes
  24. Alternate group                          : 1
  25. Encoded date                             : UTC 2021-09-17 07:06:57
  26. Tagged date                              : UTC 2021-09-17 07:12:52
  27. Color range                              : Full
  28. Codec configuration box                  : hvcC+dvcC

  29. Audio
  30. ID                                       : 2
  31. Format                                   : AC-3
  32. Format/Info                              : Audio Coding 3
  33. Commercial name                          : Dolby Digital
  34. Codec ID                                 : ac-3
  35. Duration                                 : 1 h 43 min
  36. Bit rate mode                            : Constant
  37. Bit rate                                 : 384 kb/s
  38. Maximum bit rate                         : 406 kb/s
  39. Channel(s)                               : 6 channels
  40. Channel layout                           : L R C LFE Ls Rs
  41. Sampling rate                            : 48.0 kHz
  42. Frame rate                               : 31.250 FPS (1536 SPF)
  43. Compression mode                         : Lossy
  44. Stream size                              : 285 MiB (2%)
  45. Title                                    : English
  46. Language                                 : English
  47. Service kind                             : Complete Main
  48. Encoded date                             : UTC 2021-09-17 07:05:44
  49. Tagged date                              : UTC 2021-09-17 07:12:52

  50. Text #1
  51. ID                                       : 3
  52. Format                                   : Timed Text
  53. Codec ID                                 : tx3g
  54. Duration                                 : 1 h 36 min
  55. Bit rate mode                            : Variable
  56. Bit rate                                 : 50 b/s
  57. Stream size                              : 35.4 KiB (0%)
  58. Title                                    : SDH
  59. Language                                 : English
  60. Forced                                   : No
  61. Encoded date                             : UTC 2021-09-17 07:12:51
  62. Tagged date                              : UTC 2021-09-17 07:12:52

  63. Text #2
  64. ID                                       : 4
  65. Format                                   : Timed Text
  66. Codec ID                                 : tx3g
  67. Duration                                 : 1 h 43 min
  68. Bit rate mode                            : Variable
  69. Bit rate                                 : 59 b/s
  70. Stream size                              : 44.4 KiB (0%)
  71. Title                                    : SDH
  72. Language                                 : English
  73. Forced                                   : No
  74. Encoded date                             : UTC 2021-09-17 07:12:51
  75. Tagged date                              : UTC 2021-09-17 07:12:52

  76. Text #3
  77. ID                                       : 5
  78. Format                                   : Timed Text
  79. Codec ID                                 : tx3g
  80. Duration                                 : 1 h 43 min
  81. Bit rate mode                            : Variable
  82. Bit rate                                 : 58 b/s
  83. Stream size                              : 43.7 KiB (0%)
  84. Title                                    : Espa?ol CC
  85. Language                                 : Spanish
  86. Forced                                   : No
  87. Encoded date                             : UTC 2021-09-17 07:12:51
  88. Tagged date                              : UTC 2021-09-17 07:12:52
复制代码




                                       
                                       

                                       
                                       
                                       




回复

使用道具 举报

蓝光币
17
发表于 2021-9-18 00:22:59 | 显示全部楼层
感谢楼主分享!!
回复 支持 反对

使用道具 举报

蓝光币
2996
发表于 2021-9-18 01:17:07 | 显示全部楼层

这个帖子不回对不起自己!我想我是一天也不能离开蓝光电影网。
回复 支持 反对

使用道具 举报

蓝光币
32
发表于 2021-9-18 11:11:32 | 显示全部楼层

这东西我收了!谢谢楼主!蓝光电影网真好!
回复 支持 反对

使用道具 举报

懒得打字嘛,点击右侧快捷回复 【右侧内容,后台自定义】
您需要登录后才可以回帖 登录 | 立即加入

本版积分规则

Archiver|小黑屋| 蓝光电影网 |网站地图

Copyright © 2021 Comsenz Inc. Powered by 蓝光电影网

蓝光电影网

本站内容由用户自主分享和转载自互联网,转载目的在于传递更多信息,并不代表本网赞同其观点和对其真实性负责。

如有侵权、违反国家法律政策行为,请联系我们,我们会第一时间及时清除和处理!

举报反馈邮箱:[email protected]

快速回复 返回顶部 返回列表