找回密码

蓝光电影网

查看: 81|回复: 0

[剧情] 一飞冲天 Nadia.1984.1080p.WEBRip.x264-RARBG 1.89GB

[复制链接]
蓝光币
513
发表于 2021-9-19 15:49:41 | 显示全部楼层 |阅读模式


◎译  名 一飞冲天
◎片  名 Nadia
◎年  代 1984
◎产  地 美国,南斯拉夫,南斯拉夫
◎类  别 剧情 / 活动
◎语  言 英语
◎上映日期 1984-06-11
◎豆瓣评分 /10 from 0 users
◎豆瓣链接 https://movie.douban.com/subject/1306322/
◎片  长 100分钟
◎导  演 阿兰·库克 Alan Cooke
◎主  演 塔利亚·巴尔萨姆 Talia Balsam
       乔纳森·班克斯 Jonathan Banks
       卡丽·斯诺格丽丝 Carrie Snodgress
       Vjenceslav Kapural Vjenceslav Kapural
       康查塔·费雷尔 Conchata Ferrell
       Bozidar Alic Bozidar Alic
       辛提加·阿斯佩格 Cintija Asperger
       Zvonimir Gavranovic Zvonimir Gavranovic
       Johann Carlo Johann Carlo
       博兹达尔·斯密贾尼克 Bozidar Smiljanic
◎简  介


  暂无相关剧情先容
  1. Video
  2. ID                                       : 1
  3. Format                                   : AVC
  4. Format/Info                              : Advanced Video Codec
  5. Format profile                           : [email protected]
  6. Format settings                          : CABAC / 4 Ref Frames
  7. Format settings, CABAC                   : Yes
  8. Format settings, Reference frames        : 4 frames
  9. Codec ID                                 : avc1
  10. Codec ID/Info                            : Advanced Video Coding
  11. Duration                                 : 1 h 39 min
  12. Source duration                          : 1 h 39 min
  13. Bit rate                                 : 2 500 kb/s
  14. Width                                    : 1 440 pixels
  15. Height                                   : 1 080 pixels
  16. Display aspect ratio                     : 4:3
  17. Frame rate mode                          : Constant
  18. Frame rate                               : 23.976 (23976/1000/189150) FPS
  19. Color space                              : YUV
  20. Chroma subsampling                       : 4:2:0
  21. Bit depth                                : 8 bits
  22. Scan type                                : Progressive
  23. Bits/(Pixel*Frame)                       : 0.067
  24. Stream size                              : 1.73 GiB (92%)
  25. Source stream size                       : 1.73 GiB (92%)
  26. Writing library                          : x264 core 152 r2851M ba24899
  27. Encoding settings                        : cabac=1 / ref=4 / deblock=1:-1:-1 / analyse=0x3:0x113 / me=umh / subme=9 / psy=1 / psy_rd=1.00:0.15 / mixed_ref=1 / me_range=24 / chroma_me=1 / trellis=2 / 8x8dct=1 / cqm=0 / deadzone=21,11 / fast_pskip=1 / chroma_qp_offset=-3 / threads=16 / lookahead_threads=4 / sliced_threads=0 / nr=0 / decimate=1 / interlaced=0 / bluray_compat=0 / constrained_intra=0 / bframes=3 / b_pyramid=2 / b_adapt=2 / b_bias=0 / direct=3 / weightb=1 / open_gop=0 / weightp=2 / keyint=250 / keyint_min=25 / scenecut=40 / intra_refresh=0 / rc_lookahead=50 / rc=2pass / mbtree=1 / bitrate=2500 / ratetol=1.0 / qcomp=0.60 / qpmin=0 / qpmax=69 / qpstep=4 / cplxblur=20.0 / qblur=0.5 / vbv_maxrate=31250 / vbv_bufsize=31250 / nal_hrd=none / filler=0 / ip_ratio=1.40 / aq=3:1.00
  28. Encoded date                             : UTC 2021-09-18 22:06:00
  29. Tagged date                              : UTC 2021-09-18 22:06:00
  30. Codec configuration box                  : avcC
  31. Audio
  32. ID                                       : 2
  33. Format                                   : AAC LC
  34. Format/Info                              : Advanced Audio Codec Low Complexity
  35. Codec ID                                 : mp4a-40-2
  36. Duration                                 : 1 h 39 min
  37. Bit rate mode                            : Constant
  38. Bit rate                                 : 224 kb/s
  39. Channel(s)                               : 2 channels
  40. Channel layout                           : L R
  41. Sampling rate                            : 48.0 kHz
  42. Frame rate                               : 46.875 FPS (1024 SPF)
  43. Compression mode                         : Lossy
  44. Stream size                              : 159 MiB (8%)
  45. Language                                 : English
  46. Default                                  : Yes
  47. Alternate group                          : 1
  48. Encoded date                             : UTC 2021-09-18 22:06:00
  49. Tagged date                              : UTC 2021-09-18 22:06:00
复制代码




                                       
                                       

                                       
                                       
                                       




回复

使用道具 举报

懒得打字嘛,点击右侧快捷回复 【右侧内容,后台自定义】
您需要登录后才可以回帖 登录 | 立即加入

本版积分规则

Archiver|小黑屋| 蓝光电影网 |网站地图

Copyright © 2021 Comsenz Inc. Powered by 蓝光电影网

蓝光电影网

本站内容由用户自主分享和转载自互联网,转载目的在于传递更多信息,并不代表本网赞同其观点和对其真实性负责。

如有侵权、违反国家法律政策行为,请联系我们,我们会第一时间及时清除和处理!

举报反馈邮箱:[email protected]

快速回复 返回顶部 返回列表