找回密码

蓝光电影网

查看: 123|回复: 0

[REMUX.HEVC] 仆人/连环套 The.Servant.1963.OAR.2160p.BluRay.REMUX.HEVC.DTS-HD.MA.2.0-FGT 44.24GB

[复制链接]
蓝光币
513
发表于 2021-9-27 19:02:15 | 显示全部楼层 |阅读模式


◎译  名 家丁/连环套/风骚令郎花弄蝶
◎片  名 The Servant
◎年  代 1963
◎产  地 英国
◎类  别 剧情
◎语  言 英语
◎上映日期 1963-09
◎豆瓣评分 8.4/10 from 2736 users
◎豆瓣链接 https://movie.douban.com/subject/1303553/
◎片  长 116分钟
◎导  演 约瑟夫·罗西 Joseph Losey
◎编  剧 哈罗德·品特 Harold Pinter / 罗宾·马格汉姆 Robin Maugham
◎主  演 德克·博加德 Dirk Bogarde
       詹姆斯·福克斯 James Fox
       莎拉·米尔斯 Sarah Miles
       帕特里克·马基 Patrick Magee
       Hazel Terry Hazel Terry
       Derek Tansley Derek Tansley
       理查德·弗农 Richard Vernon
       格里·达根 Gerry Duggan
       哈罗德·品特 Harold Pinter
       Alison Seebohm Alison Seebohm
       吉尔·梅尔福德 Jill Melford
       Davy Graham Davy Graham
       阿伦·欧文 Alun Owen
       凯瑟琳·拉塞 Catherine Lacey
       John Dankworth John Dankworth
       Dorothy Bromiley Dorothy Bromiley
       温蒂·克雷格 Wendy Craig
       安·弗班克 Ann Firbank
◎标  签 英国 | 英国电影 | 约瑟夫·罗西 | 黑白 | 1963 | 1960s | 剧情 | JosephLosey
◎简  介


  刚刚搬到伦敦的托尼(詹姆斯·福克斯 James Fox 饰)雇佣了名为巴雷特(德克·博加德 Dirk Bogarde 饰)的男人作为家中的家丁,将家里高低大巨细小的一切事物交给他打理,聪明肯干的巴雷特没有让托尼失望,很快便获得了仆人的信赖。
  
  托尼的女友苏珊(温蒂·克雷格 Wendy Craig 饰)并不喜好巴雷特,由于她隐约发觉到,托尼和巴雷特的妹妹薇拉(莎拉·米尔斯 Sarah Miles 饰)之间有着说不清道不明的暗昧关系。以后,托尼震动的发现本来薇拉系巴雷特的情人,深感遭到欺骗的托尼解雇了巴雷特。一次偶然中,托尼和巴雷特在一间小酒馆重逢了,他们重新建立了主仆关系,但这概况和蔼的关系里实则布满了刀光血影。
◎获奖情况
  第24届威尼斯电影节 ?(1963)
  主比赛单元金狮奖(提名) 约瑟夫·罗西
  1. Video
  2. ID                                       : 1
  3. ID in the original source medium         : 4113 (0x1011)
  4. Format                                   : HEVC
  5. Format/Info                              : High Efficiency Video Coding
  6. Format profile                           : Main [email protected]@High
  7. HDR format                               : Dolby Vision, Version 1.0, dvhe.07.06, BL+EL+RPU, Blu-ray compatible / SMPTE ST 2086, HDR10 compatible
  8. Codec ID                                 : V_MPEGH/ISO/HEVC
  9. Duration                                 : 1 h 55 min
  10. Bit rate                                 : 51.1 Mb/s
  11. Width                                    : 3 840 pixels
  12. Height                                   : 2 160 pixels
  13. Display aspect ratio                     : 16:9
  14. Frame rate mode                          : Constant
  15. Frame rate                               : 24.000 FPS
  16. Color space                              : YUV
  17. Chroma subsampling                       : 4:2:0 (Type 2)
  18. Bit depth                                : 10 bits
  19. Bits/(Pixel*Frame)                       : 0.256
  20. Stream size                              : 41.2 GiB (93%)
  21. Language                                 : English
  22. Default                                  : No
  23. Forced                                   : No
  24. Color range                              : Limited
  25. Color primaries                          : BT.2020
  26. Transfer characteristics                 : PQ
  27. Matrix coefficients                      : BT.2020 non-constant
  28. Mastering display color primaries        : BT.2020
  29. Mastering display luminance              : min: 0.0001 cd/m2, max: 1000 cd/m2
  30. Original source medium                   : Blu-ray
  31. Audio #1
  32. ID                                       : 2
  33. ID in the original source medium         : 4352 (0x1100)
  34. Format                                   : DTS XLL
  35. Format/Info                              : Digital Theater Systems
  36. Commercial name                          : DTS-HD Master Audio
  37. Codec ID                                 : A_DTS
  38. Duration                                 : 1 h 55 min
  39. Bit rate mode                            : Variable
  40. Bit rate                                 : 985 kb/s
  41. Channel(s)                               : 2 channels
  42. Channel layout                           : L R
  43. Sampling rate                            : 48.0 kHz
  44. Frame rate                               : 93.750 FPS (512 SPF)
  45. Bit depth                                : 24 bits
  46. Compression mode                         : Lossless
  47. Stream size                              : 815 MiB (2%)
  48. Title                                    : DTS-HD MA 2.0
  49. Language                                 : English
  50. Default                                  : Yes
  51. Forced                                   : No
  52. Original source medium                   : Blu-ray
  53. Audio #2
  54. ID                                       : 3
  55. Format                                   : AC-3
  56. Format/Info                              : Audio Coding 3
  57. Commercial name                          : Dolby Digital
  58. Codec ID                                 : A_AC3
  59. Duration                                 : 1 h 55 min
  60. Bit rate mode                            : Constant
  61. Bit rate                                 : 640 kb/s
  62. Channel(s)                               : 2 channels
  63. Channel layout                           : L R
  64. Sampling rate                            : 48.0 kHz
  65. Frame rate                               : 31.250 FPS (1536 SPF)
  66. Compression mode                         : Lossy
  67. Stream size                              : 529 MiB (1%)
  68. Title                                    : DD 2.0
  69. Language                                 : English
  70. Service kind                             : Complete Main
  71. Default                                  : No
  72. Forced                                   : No
  73. Audio #3
  74. ID                                       : 4
  75. ID in the original source medium         : 4353 (0x1101)
  76. Format                                   : DTS XLL
  77. Format/Info                              : Digital Theater Systems
  78. Commercial name                          : DTS-HD Master Audio
  79. Codec ID                                 : A_DTS
  80. Duration                                 : 1 h 55 min
  81. Bit rate mode                            : Variable
  82. Bit rate                                 : 1 044 kb/s
  83. Channel(s)                               : 2 channels
  84. Channel layout                           : L R
  85. Sampling rate                            : 48.0 kHz
  86. Frame rate                               : 93.750 FPS (512 SPF)
  87. Bit depth                                : 24 bits
  88. Compression mode                         : Lossless
  89. Stream size                              : 863 MiB (2%)
  90. Title                                    : DTS-HD MA 2.0
  91. Language                                 : German
  92. Default                                  : No
  93. Forced                                   : No
  94. Original source medium                   : Blu-ray
  95. Audio #4
  96. ID                                       : 5
  97. ID in the original source medium         : 4354 (0x1102)
  98. Format                                   : DTS XLL
  99. Format/Info                              : Digital Theater Systems
  100. Commercial name                          : DTS-HD Master Audio
  101. Codec ID                                 : A_DTS
  102. Duration                                 : 1 h 55 min
  103. Bit rate mode                            : Variable
  104. Bit rate                                 : 1 025 kb/s
  105. Channel(s)                               : 2 channels
  106. Channel layout                           : L R
  107. Sampling rate                            : 48.0 kHz
  108. Frame rate                               : 93.750 FPS (512 SPF)
  109. Bit depth                                : 24 bits
  110. Compression mode                         : Lossless
  111. Stream size                              : 848 MiB (2%)
  112. Title                                    : DTS-HD MA 2.0
  113. Language                                 : French
  114. Default                                  : No
  115. Forced                                   : No
  116. Original source medium                   : Blu-ray
  117. Text #1
  118. ID                                       : 6
  119. Format                                   : UTF-8
  120. Codec ID                                 : S_TEXT/UTF8
  121. Codec ID/Info                            : UTF-8 Plain Text
  122. Duration                                 : 1 h 48 min
  123. Bit rate                                 : 40 b/s
  124. Count of elements                        : 1079
  125. Stream size                              : 32.0 KiB (0%)
  126. Title                                    : SRT
  127. Language                                 : English
  128. Default                                  : Yes
  129. Forced                                   : No
  130. Text #2
  131. ID                                       : 7
  132. ID in the original source medium         : 4768 (0x12A0)
  133. Format                                   : PGS
  134. Muxing mode                              : zlib
  135. Codec ID                                 : S_HDMV/PGS
  136. Codec ID/Info                            : Picture based subtitle format used on BDs/HD-DVDs
  137. Duration                                 : 1 h 50 min
  138. Bit rate                                 : 26.2 kb/s
  139. Count of elements                        : 2324
  140. Stream size                              : 20.7 MiB (0%)
  141. Language                                 : English
  142. Default                                  : No
  143. Forced                                   : No
  144. Original source medium                   : Blu-ray
  145. Text #3
  146. ID                                       : 8
  147. ID in the original source medium         : 4769 (0x12A1)
  148. Format                                   : PGS
  149. Muxing mode                              : zlib
  150. Codec ID                                 : S_HDMV/PGS
  151. Codec ID/Info                            : Picture based subtitle format used on BDs/HD-DVDs
  152. Duration                                 : 1 h 51 min
  153. Bit rate                                 : 21.4 kb/s
  154. Count of elements                        : 1888
  155. Stream size                              : 17.1 MiB (0%)
  156. Language                                 : German
  157. Default                                  : No
  158. Forced                                   : No
  159. Original source medium                   : Blu-ray
  160. Text #4
  161. ID                                       : 9
  162. ID in the original source medium         : 4770 (0x12A2)
  163. Format                                   : PGS
  164. Muxing mode                              : zlib
  165. Codec ID                                 : S_HDMV/PGS
  166. Codec ID/Info                            : Picture based subtitle format used on BDs/HD-DVDs
  167. Duration                                 : 1 h 50 min
  168. Bit rate                                 : 14.4 kb/s
  169. Count of elements                        : 1542
  170. Stream size                              : 11.4 MiB (0%)
  171. Language                                 : French
  172. Default                                  : No
  173. Forced                                   : No
  174. Original source medium                   : Blu-ray
  175. Menu
  176. 00:00:00.000                             : Chapter 01
  177. 00:08:21.083                             : Chapter 02
  178. 00:17:30.083                             : Chapter 03
  179. 00:27:44.250                             : Chapter 04
  180. 00:37:23.125                             : Chapter 05
  181. 00:46:38.166                             : Chapter 06
  182. 00:56:19.041                             : Chapter 07
  183. 01:11:03.791                             : Chapter 08
  184. 01:20:27.333                             : Chapter 09
  185. 01:26:30.541                             : Chapter 10
  186. 01:36:47.458                             : Chapter 11
  187. 01:44:01.583                             : Chapter 12
复制代码






                                       
                                       

                                       
                                       
                                       




回复

使用道具 举报

懒得打字嘛,点击右侧快捷回复 【右侧内容,后台自定义】
您需要登录后才可以回帖 登录 | 立即加入

本版积分规则

Archiver|小黑屋| 蓝光电影网 |网站地图

Copyright © 2021 Comsenz Inc. Powered by 蓝光电影网

蓝光电影网

本站内容由用户自主分享和转载自互联网,转载目的在于传递更多信息,并不代表本网赞同其观点和对其真实性负责。

如有侵权、违反国家法律政策行为,请联系我们,我们会第一时间及时清除和处理!

举报反馈邮箱:[email protected]

快速回复 返回顶部 返回列表