找回密码

蓝光电影网

查看: 503|回复: 10

[REMUX.HEVC] 失控玩家/分身人 Free.Guy.2021.2160p.BluRay.REMUX.HEVC.DTS-HD.MA.TrueHD.7.1.Atmos-FGT 57.58GB

[复制链接]
蓝光币
509
发表于 2021-10-1 09:30:57 | 显示全部楼层 |阅读模式


◎译  名 失控玩家/兼顾人/爆机自在仁(港)/脱稿玩家(台)/自在之人/自在人
◎片  名 Free Guy
◎年  代 2021
◎产  地 美国,加拿大
◎类  别 笑剧 / 行动 / 科幻
◎语  言 英语
◎上映日期 2021-08-10(洛迦诺电影节) / 2021-08-13(美国) / 2021-08-27(中国大陆)
◎豆瓣评分 7.7/10 from 395639 users
◎豆瓣链接 https://movie.douban.com/subject/30337388/
◎片  长 115分钟
◎导  演 肖恩·利维 Shawn Levy
◎编  剧 马特·利伯曼 Matt Lieberman / 扎克·佩恩 Zak Penn
◎主  演 瑞安·雷诺兹 Ryan Reynolds
       朱迪·科默 Jodie Comer
       乔·基瑞 Joe Keery
       里尔·莱尔·哈瓦瑞 Lil Rel Howery
       塔伊加·维迪提 Taika Waititi
       乌特卡什·安邦德卡尔 Utkarsh Ambudkar
       查宁·塔图姆 Channing Tatum
       休·杰克曼 Hugh Jackman
       道恩·强森 Dwayne Johnson
       克里斯·埃文斯 Chris Evans
       约翰·卡拉辛斯基 John Krasinski
       蒂娜·菲 Tina Fey
       卡米尔·科斯塔克 Camille Kostek
       布丽特妮·欧德福特 Britne Oldford
       肯尼斯·以色列 Kenneth Israel
       亚历克斯·崔贝克 Alex Trebek
       劳拉·斯宾塞 Lara Spencer
       马修·卡德罗普 Matthew Cardarople
       迈克尔·陶 Michael Tow
       野村祐人 Eugene Nomura
       Raj Jawa Raj Jawa
       何塞·冈斯·阿尔维斯 Jose Guns Alves
       欧文·伯克 Owen Burke
       加布里埃尔·洛莱斯 Gabrielle Lorthe
       雷吉纳·托芬 Regina Taufen
       珍妮尔·费格利 Janelle Feigley
       泰特·弗莱彻 Tait Fletcher
       香农·哈特曼 Shannon Hartman
       金伯利·豪威 Kimberly Howe
       亚伦·W·里德 Aaron W Reed
       阿纳斯塔西亚·齐卡那瓦 Anastasia Tsikhanava
       大卫·莫威克 David Morwick
       阿德里安·M·蒙波因特 Adrian M. Mompoint
       多梅尼克·阿尔迪诺 Domenic Arduino
◎标  签 科幻 | 游戏 | 笑剧 | 搞笑 | 美国 | 2021 | 奇异 | 冒险
◎简  介


  银行出纳员盖(瑞安·雷诺兹 饰)发现自己实在是开放天下电子游戏中的布景脚色,因而决议成为豪杰,并改写自己的故事。现在,在一个没有限制的天下里,他决心以自己的方式拯救他的天下,免得为时过晚。
  1. Video
  2. ID                                       : 1
  3. ID in the original source medium         : 4113 (0x1011)
  4. Format                                   : HEVC
  5. Format/Info                              : High Efficiency Video Coding
  6. Format profile                           : Main [email protected]@High
  7. HDR format                               : SMPTE ST 2086, HDR10 compatible
  8. Codec ID                                 : V_MPEGH/ISO/HEVC
  9. Duration                                 : 1 h 54 min
  10. Bit rate                                 : 49.9 Mb/s
  11. Width                                    : 3 840 pixels
  12. Height                                   : 2 160 pixels
  13. Display aspect ratio                     : 16:9
  14. Frame rate mode                          : Constant
  15. Frame rate                               : 23.976 (24000/1001/189150) FPS
  16. Color space                              : YUV
  17. Chroma subsampling                       : 4:2:0 (Type 2)
  18. Bit depth                                : 10 bits
  19. Bits/(Pixel*Frame)                       : 0.251
  20. Stream size                              : 40.1 GiB (70%)
  21. Writing library                          : ATEME Titan File 3.9.6 (4.9.6.2)        
  22. Language                                 : English
  23. Default                                  : No
  24. Forced                                   : No
  25. Color range                              : Limited
  26. Color primaries                          : BT.2020
  27. Transfer characteristics                 : PQ
  28. Matrix coefficients                      : BT.2020 non-constant
  29. Mastering display color primaries        : Display P3
  30. Mastering display luminance              : min: 0.0050 cd/m2, max: 1000 cd/m2
  31. Original source medium                   : Blu-ray
  32. Audio #1
  33. ID                                       : 2
  34. ID in the original source medium         : 4352 (0x1100)
  35. Format                                   : MLP FBA 16-ch
  36. Format/Info                              : Meridian Lossless Packing FBA with 16-channel presentation
  37. Commercial name                          : Dolby TrueHD with Dolby Atmos
  38. Codec ID                                 : A_TRUEHD
  39. Duration                                 : 1 h 54 min
  40. Bit rate mode                            : Variable
  41. Bit rate                                 : 7 912 kb/s
  42. Maximum bit rate                         : 12.9 Mb/s
  43. Channel(s)                               : 8 channels
  44. Channel layout                           : L R C LFE Ls Rs Lb Rb
  45. Sampling rate                            : 48.0 kHz
  46. Frame rate                               : 1 200.000 FPS (40 SPF)
  47. Bit depth                                : 24 bits
  48. Compression mode                         : Lossless
  49. Stream size                              : 6.35 GiB (11%)
  50. Title                                    : TrueHD 7.1 Atmos
  51. Language                                 : English
  52. Default                                  : Yes
  53. Forced                                   : No
  54. Original source medium                   : Blu-ray
  55. Number of dynamic objects                : 13
  56. Bed channel count                        : 1 channel
  57. Bed channel configuration                : LFE
  58. Audio #2
  59. ID                                       : 3
  60. Format                                   : DTS XLL
  61. Format/Info                              : Digital Theater Systems
  62. Commercial name                          : DTS-HD Master Audio
  63. Codec ID                                 : A_DTS
  64. Duration                                 : 1 h 54 min
  65. Bit rate mode                            : Variable
  66. Bit rate                                 : 4 040 kb/s
  67. Channel(s)                               : 8 channels
  68. Channel layout                           : C L R LFE Lb Rb Lss Rss
  69. Sampling rate                            : 48.0 kHz
  70. Frame rate                               : 93.750 FPS (512 SPF)
  71. Bit depth                                : 24 bits
  72. Compression mode                         : Lossless
  73. Stream size                              : 3.24 GiB (6%)
  74. Title                                    : DTS-HD MA 7.1
  75. Language                                 : English
  76. Default                                  : No
  77. Forced                                   : No
  78. Audio #3
  79. ID                                       : 4
  80. ID in the original source medium         : 4352 (0x1100)
  81. Format                                   : AC-3
  82. Format/Info                              : Audio Coding 3
  83. Commercial name                          : Dolby Digital
  84. Codec ID                                 : A_AC3
  85. Duration                                 : 1 h 54 min
  86. Bit rate mode                            : Constant
  87. Bit rate                                 : 640 kb/s
  88. Channel(s)                               : 6 channels
  89. Channel layout                           : L R C LFE Ls Rs
  90. Sampling rate                            : 48.0 kHz
  91. Frame rate                               : 31.250 FPS (1536 SPF)
  92. Compression mode                         : Lossy
  93. Stream size                              : 526 MiB (1%)
  94. Title                                    : DD 5.1
  95. Language                                 : English
  96. Service kind                             : Complete Main
  97. Default                                  : No
  98. Forced                                   : No
  99. Original source medium                   : Blu-ray
  100. Audio #4
  101. ID                                       : 5
  102. ID in the original source medium         : 4353 (0x1101)
  103. Format                                   : AC-3
  104. Format/Info                              : Audio Coding 3
  105. Commercial name                          : Dolby Digital
  106. Codec ID                                 : A_AC3
  107. Duration                                 : 1 h 54 min
  108. Bit rate mode                            : Constant
  109. Bit rate                                 : 320 kb/s
  110. Channel(s)                               : 2 channels
  111. Channel layout                           : L R
  112. Sampling rate                            : 48.0 kHz
  113. Frame rate                               : 31.250 FPS (1536 SPF)
  114. Compression mode                         : Lossy
  115. Stream size                              : 263 MiB (0%)
  116. Title                                    : Stereo
  117. Language                                 : English
  118. Service kind                             : Complete Main
  119. Default                                  : No
  120. Forced                                   : No
  121. Original source medium                   : Blu-ray
  122. Audio #5
  123. ID                                       : 6
  124. Format                                   : E-AC-3
  125. Format/Info                              : Enhanced AC-3
  126. Commercial name                          : Dolby Digital Plus
  127. Format profile                           : Blu-ray Disc
  128. Codec ID                                 : A_EAC3
  129. Duration                                 : 1 h 54 min
  130. Bit rate mode                            : Constant
  131. Bit rate                                 : 1 024 kb/s
  132. Channel(s)                               : 8 channels
  133. Channel layout                           : L R C LFE Ls Rs Lb Rb
  134. Sampling rate                            : 48.0 kHz
  135. Frame rate                               : 31.250 FPS (1536 SPF)
  136. Compression mode                         : Lossy
  137. Stream size                              : 842 MiB (1%)
  138. Title                                    : DDP 7.1
  139. Language                                 : French
  140. Service kind                             : Complete Main
  141. Default                                  : No
  142. Forced                                   : No
  143. Audio #6
  144. ID                                       : 7
  145. ID in the original source medium         : 4354 (0x1102)
  146. Format                                   : AC-3
  147. Format/Info                              : Audio Coding 3
  148. Commercial name                          : Dolby Digital
  149. Codec ID                                 : A_AC3
  150. Duration                                 : 1 h 54 min
  151. Bit rate mode                            : Constant
  152. Bit rate                                 : 576 kb/s
  153. Channel(s)                               : 6 channels
  154. Channel layout                           : L R C LFE Ls Rs
  155. Sampling rate                            : 48.0 kHz
  156. Frame rate                               : 31.250 FPS (1536 SPF)
  157. Compression mode                         : Lossy
  158. Stream size                              : 474 MiB (1%)
  159. Title                                    : DD 5.1
  160. Language                                 : French
  161. Service kind                             : Complete Main
  162. Default                                  : No
  163. Forced                                   : No
  164. Original source medium                   : Blu-ray
  165. Audio #7
  166. ID                                       : 8
  167. ID in the original source medium         : 4355 (0x1103)
  168. Format                                   : AC-3
  169. Format/Info                              : Audio Coding 3
  170. Commercial name                          : Dolby Digital
  171. Codec ID                                 : A_AC3
  172. Duration                                 : 1 h 54 min
  173. Bit rate mode                            : Constant
  174. Bit rate                                 : 640 kb/s
  175. Channel(s)                               : 6 channels
  176. Channel layout                           : L R C LFE Ls Rs
  177. Sampling rate                            : 48.0 kHz
  178. Frame rate                               : 31.250 FPS (1536 SPF)
  179. Compression mode                         : Lossy
  180. Stream size                              : 526 MiB (1%)
  181. Title                                    : DD 5.1
  182. Language                                 : French
  183. Service kind                             : Complete Main
  184. Default                                  : No
  185. Forced                                   : No
  186. Original source medium                   : Blu-ray
  187. Audio #8
  188. ID                                       : 9
  189. Format                                   : E-AC-3
  190. Format/Info                              : Enhanced AC-3
  191. Commercial name                          : Dolby Digital Plus
  192. Format profile                           : Blu-ray Disc
  193. Codec ID                                 : A_EAC3
  194. Duration                                 : 1 h 54 min
  195. Bit rate mode                            : Constant
  196. Bit rate                                 : 1 024 kb/s
  197. Channel(s)                               : 8 channels
  198. Channel layout                           : L R C LFE Ls Rs Lb Rb
  199. Sampling rate                            : 48.0 kHz
  200. Frame rate                               : 31.250 FPS (1536 SPF)
  201. Compression mode                         : Lossy
  202. Stream size                              : 842 MiB (1%)
  203. Title                                    : DDP 7.1
  204. Language                                 : Spanish
  205. Service kind                             : Complete Main
  206. Default                                  : No
  207. Forced                                   : No
  208. Audio #9
  209. ID                                       : 10
  210. ID in the original source medium         : 4356 (0x1104)
  211. Format                                   : AC-3
  212. Format/Info                              : Audio Coding 3
  213. Commercial name                          : Dolby Digital
  214. Codec ID                                 : A_AC3
  215. Duration                                 : 1 h 54 min
  216. Bit rate mode                            : Constant
  217. Bit rate                                 : 576 kb/s
  218. Channel(s)                               : 6 channels
  219. Channel layout                           : L R C LFE Ls Rs
  220. Sampling rate                            : 48.0 kHz
  221. Frame rate                               : 31.250 FPS (1536 SPF)
  222. Compression mode                         : Lossy
  223. Stream size                              : 474 MiB (1%)
  224. Title                                    : DD 5.1
  225. Language                                 : Spanish
  226. Service kind                             : Complete Main
  227. Default                                  : No
  228. Forced                                   : No
  229. Original source medium                   : Blu-ray
  230. Audio #10
  231. ID                                       : 11
  232. Format                                   : E-AC-3
  233. Format/Info                              : Enhanced AC-3
  234. Commercial name                          : Dolby Digital Plus
  235. Format profile                           : Blu-ray Disc
  236. Codec ID                                 : A_EAC3
  237. Duration                                 : 1 h 54 min
  238. Bit rate mode                            : Constant
  239. Bit rate                                 : 1 024 kb/s
  240. Channel(s)                               : 8 channels
  241. Channel layout                           : L R C LFE Ls Rs Lb Rb
  242. Sampling rate                            : 48.0 kHz
  243. Frame rate                               : 31.250 FPS (1536 SPF)
  244. Compression mode                         : Lossy
  245. Stream size                              : 842 MiB (1%)
  246. Title                                    : DDP 7.1
  247. Language                                 : German
  248. Service kind                             : Complete Main
  249. Default                                  : No
  250. Forced                                   : No
  251. Audio #11
  252. ID                                       : 12
  253. ID in the original source medium         : 4357 (0x1105)
  254. Format                                   : AC-3
  255. Format/Info                              : Audio Coding 3
  256. Commercial name                          : Dolby Digital
  257. Codec ID                                 : A_AC3
  258. Duration                                 : 1 h 54 min
  259. Bit rate mode                            : Constant
  260. Bit rate                                 : 576 kb/s
  261. Channel(s)                               : 6 channels
  262. Channel layout                           : L R C LFE Ls Rs
  263. Sampling rate                            : 48.0 kHz
  264. Frame rate                               : 31.250 FPS (1536 SPF)
  265. Compression mode                         : Lossy
  266. Stream size                              : 474 MiB (1%)
  267. Title                                    : DD 5.1
  268. Language                                 : German
  269. Service kind                             : Complete Main
  270. Default                                  : No
  271. Forced                                   : No
  272. Original source medium                   : Blu-ray
  273. Audio #12
  274. ID                                       : 13
  275. Format                                   : E-AC-3
  276. Format/Info                              : Enhanced AC-3
  277. Commercial name                          : Dolby Digital Plus
  278. Format profile                           : Blu-ray Disc
  279. Codec ID                                 : A_EAC3
  280. Duration                                 : 1 h 54 min
  281. Bit rate mode                            : Constant
  282. Bit rate                                 : 1 024 kb/s
  283. Channel(s)                               : 8 channels
  284. Channel layout                           : L R C LFE Ls Rs Lb Rb
  285. Sampling rate                            : 48.0 kHz
  286. Frame rate                               : 31.250 FPS (1536 SPF)
  287. Compression mode                         : Lossy
  288. Stream size                              : 842 MiB (1%)
  289. Title                                    : DDP 7.1
  290. Language                                 : Italian
  291. Service kind                             : Complete Main
  292. Default                                  : No
  293. Forced                                   : No
  294. Audio #13
  295. ID                                       : 14
  296. ID in the original source medium         : 4358 (0x1106)
  297. Format                                   : AC-3
  298. Format/Info                              : Audio Coding 3
  299. Commercial name                          : Dolby Digital
  300. Codec ID                                 : A_AC3
  301. Duration                                 : 1 h 54 min
  302. Bit rate mode                            : Constant
  303. Bit rate                                 : 576 kb/s
  304. Channel(s)                               : 6 channels
  305. Channel layout                           : L R C LFE Ls Rs
  306. Sampling rate                            : 48.0 kHz
  307. Frame rate                               : 31.250 FPS (1536 SPF)
  308. Compression mode                         : Lossy
  309. Stream size                              : 474 MiB (1%)
  310. Title                                    : DD 5.1
  311. Language                                 : Italian
  312. Service kind                             : Complete Main
  313. Default                                  : No
  314. Forced                                   : No
  315. Original source medium                   : Blu-ray
  316. Audio #14
  317. ID                                       : 15
  318. Format                                   : E-AC-3
  319. Format/Info                              : Enhanced AC-3
  320. Commercial name                          : Dolby Digital Plus
  321. Format profile                           : Blu-ray Disc
  322. Codec ID                                 : A_EAC3
  323. Duration                                 : 1 h 54 min
  324. Bit rate mode                            : Constant
  325. Bit rate                                 : 1 024 kb/s
  326. Channel(s)                               : 8 channels
  327. Channel layout                           : L R C LFE Ls Rs Lb Rb
  328. Sampling rate                            : 48.0 kHz
  329. Frame rate                               : 31.250 FPS (1536 SPF)
  330. Compression mode                         : Lossy
  331. Stream size                              : 842 MiB (1%)
  332. Title                                    : DDP 7.1
  333. Language                                 : Japanese
  334. Service kind                             : Complete Main
  335. Default                                  : No
  336. Forced                                   : No
  337. Audio #15
  338. ID                                       : 16
  339. ID in the original source medium         : 4359 (0x1107)
  340. Format                                   : AC-3
  341. Format/Info                              : Audio Coding 3
  342. Commercial name                          : Dolby Digital
  343. Codec ID                                 : A_AC3
  344. Duration                                 : 1 h 54 min
  345. Bit rate mode                            : Constant
  346. Bit rate                                 : 576 kb/s
  347. Channel(s)                               : 6 channels
  348. Channel layout                           : L R C LFE Ls Rs
  349. Sampling rate                            : 48.0 kHz
  350. Frame rate                               : 31.250 FPS (1536 SPF)
  351. Compression mode                         : Lossy
  352. Stream size                              : 474 MiB (1%)
  353. Title                                    : DD 5.1
  354. Language                                 : Japanese
  355. Service kind                             : Complete Main
  356. Default                                  : No
  357. Forced                                   : No
  358. Original source medium                   : Blu-ray
  359. Text #1
  360. ID                                       : 17
  361. Format                                   : UTF-8
  362. Codec ID                                 : S_TEXT/UTF8
  363. Codec ID/Info                            : UTF-8 Plain Text
  364. Duration                                 : 13 s 597 ms
  365. Bit rate                                 : 98 b/s
  366. Count of elements                        : 6
  367. Stream size                              : 168 Bytes (0%)
  368. Title                                    : FORCED
  369. Language                                 : English
  370. Default                                  : No
  371. Forced                                   : Yes
  372. Text #2
  373. ID                                       : 18
  374. Format                                   : UTF-8
  375. Codec ID                                 : S_TEXT/UTF8
  376. Codec ID/Info                            : UTF-8 Plain Text
  377. Duration                                 : 1 h 45 min
  378. Bit rate                                 : 80 b/s
  379. Count of elements                        : 1902
  380. Stream size                              : 62.4 KiB (0%)
  381. Language                                 : English
  382. Default                                  : No
  383. Forced                                   : No
  384. Text #3
  385. ID                                       : 19
  386. Format                                   : UTF-8
  387. Codec ID                                 : S_TEXT/UTF8
  388. Codec ID/Info                            : UTF-8 Plain Text
  389. Duration                                 : 1 h 45 min
  390. Bit rate                                 : 90 b/s
  391. Count of elements                        : 2135
  392. Stream size                              : 70.0 KiB (0%)
  393. Title                                    : SDH
  394. Language                                 : English
  395. Default                                  : No
  396. Forced                                   : No
  397. Text #4
  398. ID                                       : 20
  399. ID in the original source medium         : 4768 (0x12A0)
  400. Format                                   : PGS
  401. Muxing mode                              : zlib
  402. Codec ID                                 : S_HDMV/PGS
  403. Codec ID/Info                            : Picture based subtitle format used on BDs/HD-DVDs
  404. Duration                                 : 1 h 45 min
  405. Bit rate                                 : 57.7 kb/s
  406. Count of elements                        : 4270
  407. Stream size                              : 43.6 MiB (0%)
  408. Language                                 : English
  409. Default                                  : No
  410. Forced                                   : No
  411. Original source medium                   : Blu-ray
  412. Text #5
  413. ID                                       : 21
  414. ID in the original source medium         : 4769 (0x12A1)
  415. Format                                   : PGS
  416. Muxing mode                              : zlib
  417. Codec ID                                 : S_HDMV/PGS
  418. Codec ID/Info                            : Picture based subtitle format used on BDs/HD-DVDs
  419. Duration                                 : 1 h 53 min
  420. Bit rate                                 : 33.8 kb/s
  421. Count of elements                        : 3396
  422. Stream size                              : 27.5 MiB (0%)
  423. Language                                 : French
  424. Default                                  : No
  425. Forced                                   : No
  426. Original source medium                   : Blu-ray
  427. Text #6
  428. ID                                       : 22
  429. ID in the original source medium         : 4770 (0x12A2)
  430. Format                                   : PGS
  431. Muxing mode                              : zlib
  432. Codec ID                                 : S_HDMV/PGS
  433. Codec ID/Info                            : Picture based subtitle format used on BDs/HD-DVDs
  434. Duration                                 : 1 h 53 min
  435. Bit rate                                 : 47.2 kb/s
  436. Count of elements                        : 3796
  437. Stream size                              : 38.5 MiB (0%)
  438. Language                                 : French
  439. Default                                  : No
  440. Forced                                   : No
  441. Original source medium                   : Blu-ray
  442. Text #7
  443. ID                                       : 23
  444. ID in the original source medium         : 4771 (0x12A3)
  445. Format                                   : PGS
  446. Muxing mode                              : zlib
  447. Codec ID                                 : S_HDMV/PGS
  448. Codec ID/Info                            : Picture based subtitle format used on BDs/HD-DVDs
  449. Duration                                 : 1 h 45 min
  450. Bit rate                                 : 50.0 kb/s
  451. Count of elements                        : 3780
  452. Stream size                              : 37.7 MiB (0%)
  453. Language                                 : Spanish
  454. Default                                  : No
  455. Forced                                   : No
  456. Original source medium                   : Blu-ray
  457. Text #8
  458. ID                                       : 24
  459. ID in the original source medium         : 4772 (0x12A4)
  460. Format                                   : PGS
  461. Muxing mode                              : zlib
  462. Codec ID                                 : S_HDMV/PGS
  463. Codec ID/Info                            : Picture based subtitle format used on BDs/HD-DVDs
  464. Duration                                 : 1 h 53 min
  465. Bit rate                                 : 39.0 kb/s
  466. Count of elements                        : 3696
  467. Stream size                              : 31.8 MiB (0%)
  468. Language                                 : German
  469. Default                                  : No
  470. Forced                                   : No
  471. Original source medium                   : Blu-ray
  472. Text #9
  473. ID                                       : 25
  474. ID in the original source medium         : 4773 (0x12A5)
  475. Format                                   : PGS
  476. Muxing mode                              : zlib
  477. Codec ID                                 : S_HDMV/PGS
  478. Codec ID/Info                            : Picture based subtitle format used on BDs/HD-DVDs
  479. Duration                                 : 1 h 53 min
  480. Bit rate                                 : 37.7 kb/s
  481. Count of elements                        : 3732
  482. Stream size                              : 30.7 MiB (0%)
  483. Language                                 : Italian
  484. Default                                  : No
  485. Forced                                   : No
  486. Original source medium                   : Blu-ray
  487. Text #10
  488. ID                                       : 26
  489. ID in the original source medium         : 4774 (0x12A6)
  490. Format                                   : PGS
  491. Muxing mode                              : zlib
  492. Codec ID                                 : S_HDMV/PGS
  493. Codec ID/Info                            : Picture based subtitle format used on BDs/HD-DVDs
  494. Duration                                 : 1 h 53 min
  495. Bit rate                                 : 30.6 kb/s
  496. Count of elements                        : 3605
  497. Stream size                              : 25.0 MiB (0%)
  498. Language                                 : Japanese
  499. Default                                  : No
  500. Forced                                   : No
  501. Original source medium                   : Blu-ray
  502. Text #11
  503. ID                                       : 27
  504. ID in the original source medium         : 4775 (0x12A7)
  505. Format                                   : PGS
  506. Muxing mode                              : zlib
  507. Codec ID                                 : S_HDMV/PGS
  508. Codec ID/Info                            : Picture based subtitle format used on BDs/HD-DVDs
  509. Duration                                 : 1 h 53 min
  510. Bit rate                                 : 34.1 kb/s
  511. Count of elements                        : 2300
  512. Stream size                              : 27.7 MiB (0%)
  513. Language                                 : Danish
  514. Default                                  : No
  515. Forced                                   : No
  516. Original source medium                   : Blu-ray
  517. Text #12
  518. ID                                       : 28
  519. ID in the original source medium         : 4776 (0x12A8)
  520. Format                                   : PGS
  521. Muxing mode                              : zlib
  522. Codec ID                                 : S_HDMV/PGS
  523. Codec ID/Info                            : Picture based subtitle format used on BDs/HD-DVDs
  524. Duration                                 : 1 h 53 min
  525. Bit rate                                 : 44.2 kb/s
  526. Count of elements                        : 3758
  527. Stream size                              : 36.0 MiB (0%)
  528. Language                                 : Finnish
  529. Default                                  : No
  530. Forced                                   : No
  531. Original source medium                   : Blu-ray
  532. Text #13
  533. ID                                       : 29
  534. ID in the original source medium         : 4777 (0x12A9)
  535. Format                                   : PGS
  536. Muxing mode                              : zlib
  537. Codec ID                                 : S_HDMV/PGS
  538. Codec ID/Info                            : Picture based subtitle format used on BDs/HD-DVDs
  539. Duration                                 : 1 h 53 min
  540. Bit rate                                 : 38.6 kb/s
  541. Count of elements                        : 3780
  542. Stream size                              : 31.5 MiB (0%)
  543. Language                                 : Norwegian
  544. Default                                  : No
  545. Forced                                   : No
  546. Original source medium                   : Blu-ray
  547. Text #14
  548. ID                                       : 30
  549. ID in the original source medium         : 4778 (0x12AA)
  550. Format                                   : PGS
  551. Muxing mode                              : zlib
  552. Codec ID                                 : S_HDMV/PGS
  553. Codec ID/Info                            : Picture based subtitle format used on BDs/HD-DVDs
  554. Duration                                 : 1 h 53 min
  555. Bit rate                                 : 30.8 kb/s
  556. Count of elements                        : 2110
  557. Stream size                              : 25.1 MiB (0%)
  558. Language                                 : Swedish
  559. Default                                  : No
  560. Forced                                   : No
  561. Original source medium                   : Blu-ray
  562. Text #15
  563. ID                                       : 31
  564. ID in the original source medium         : 4779 (0x12AB)
  565. Format                                   : PGS
  566. Muxing mode                              : zlib
  567. Codec ID                                 : S_HDMV/PGS
  568. Codec ID/Info                            : Picture based subtitle format used on BDs/HD-DVDs
  569. Duration                                 : 13 s 618 ms
  570. Bit rate                                 : 64.1 kb/s
  571. Count of elements                        : 12
  572. Stream size                              : 107 KiB (0%)
  573. Language                                 : English
  574. Default                                  : No
  575. Forced                                   : No
  576. Original source medium                   : Blu-ray
  577. Text #16
  578. ID                                       : 32
  579. ID in the original source medium         : 4780 (0x12AC)
  580. Format                                   : PGS
  581. Muxing mode                              : zlib
  582. Codec ID                                 : S_HDMV/PGS
  583. Codec ID/Info                            : Picture based subtitle format used on BDs/HD-DVDs
  584. Duration                                 : 13 s 618 ms
  585. Bit rate                                 : 57.4 kb/s
  586. Count of elements                        : 12
  587. Stream size                              : 95.4 KiB (0%)
  588. Language                                 : French
  589. Default                                  : No
  590. Forced                                   : No
  591. Original source medium                   : Blu-ray
  592. Text #17
  593. ID                                       : 33
  594. ID in the original source medium         : 4781 (0x12AD)
  595. Format                                   : PGS
  596. Muxing mode                              : zlib
  597. Codec ID                                 : S_HDMV/PGS
  598. Codec ID/Info                            : Picture based subtitle format used on BDs/HD-DVDs
  599. Duration                                 : 1 h 47 min
  600. Bit rate                                 : 414 b/s
  601. Count of elements                        : 52
  602. Stream size                              : 325 KiB (0%)
  603. Language                                 : French
  604. Default                                  : No
  605. Forced                                   : No
  606. Original source medium                   : Blu-ray
  607. Text #18
  608. ID                                       : 34
  609. ID in the original source medium         : 4782 (0x12AE)
  610. Format                                   : PGS
  611. Muxing mode                              : zlib
  612. Codec ID                                 : S_HDMV/PGS
  613. Codec ID/Info                            : Picture based subtitle format used on BDs/HD-DVDs
  614. Duration                                 : 1 h 27 min
  615. Bit rate                                 : 912 b/s
  616. Count of elements                        : 62
  617. Stream size                              : 583 KiB (0%)
  618. Language                                 : Spanish
  619. Default                                  : No
  620. Forced                                   : No
  621. Original source medium                   : Blu-ray
  622. Text #19
  623. ID                                       : 35
  624. ID in the original source medium         : 4783 (0x12AF)
  625. Format                                   : PGS
  626. Muxing mode                              : zlib
  627. Codec ID                                 : S_HDMV/PGS
  628. Codec ID/Info                            : Picture based subtitle format used on BDs/HD-DVDs
  629. Duration                                 : 13 min 14 s
  630. Bit rate                                 : 1 652 b/s
  631. Count of elements                        : 16
  632. Stream size                              : 160 KiB (0%)
  633. Language                                 : German
  634. Default                                  : No
  635. Forced                                   : No
  636. Original source medium                   : Blu-ray
  637. Text #20
  638. ID                                       : 36
  639. ID in the original source medium         : 4784 (0x12B0)
  640. Format                                   : PGS
  641. Muxing mode                              : zlib
  642. Codec ID                                 : S_HDMV/PGS
  643. Codec ID/Info                            : Picture based subtitle format used on BDs/HD-DVDs
  644. Duration                                 : 30 min 27 s
  645. Bit rate                                 : 1 224 b/s
  646. Count of elements                        : 22
  647. Stream size                              : 273 KiB (0%)
  648. Language                                 : Italian
  649. Default                                  : No
  650. Forced                                   : No
  651. Original source medium                   : Blu-ray
  652. Text #21
  653. ID                                       : 37
  654. ID in the original source medium         : 4785 (0x12B1)
  655. Format                                   : PGS
  656. Muxing mode                              : zlib
  657. Codec ID                                 : S_HDMV/PGS
  658. Codec ID/Info                            : Picture based subtitle format used on BDs/HD-DVDs
  659. Duration                                 : 1 h 39 min
  660. Bit rate                                 : 589 b/s
  661. Count of elements                        : 64
  662. Stream size                              : 430 KiB (0%)
  663. Language                                 : Japanese
  664. Default                                  : No
  665. Forced                                   : No
  666. Original source medium                   : Blu-ray
  667. Menu
  668. 00:00:00.000                             : Chapter 01
  669. 00:05:09.100                             : Chapter 02
  670. 00:08:43.523                             : Chapter 03
  671. 00:14:29.326                             : Chapter 04
  672. 00:21:25.701                             : Chapter 05
  673. 00:24:06.027                             : Chapter 06
  674. 00:28:24.911                             : Chapter 07
  675. 00:34:21.809                             : Chapter 08
  676. 00:39:40.461                             : Chapter 09
  677. 00:44:10.522                             : Chapter 10
  678. 00:48:47.758                             : Chapter 11
  679. 00:52:47.664                             : Chapter 12
  680. 00:56:18.249                             : Chapter 13
  681. 01:00:17.739                             : Chapter 14
  682. 01:04:41.752                             : Chapter 15
  683. 01:09:13.607                             : Chapter 16
  684. 01:15:13.217                             : Chapter 17
  685. 01:19:14.082                             : Chapter 18
  686. 01:23:59.325                             : Chapter 19
  687. 01:28:06.197                             : Chapter 20
  688. 01:33:07.415                             : Chapter 21
  689. 01:39:19.954                             : Chapter 22
  690. 01:44:22.506                             : Chapter 23
  691. 01:46:13.617                             : Chapter 24
复制代码




                                       
                                       

                                       
                                       
                                       




回复

使用道具 举报

蓝光币
1469
发表于 2021-10-1 10:32:14 | 显示全部楼层
太好啦&萬分感謝版主的無私發佈分享%
回复 支持 反对

使用道具 举报

蓝光币
3
发表于 2021-10-1 12:42:03 | 显示全部楼层
等好久啦美滋滋
回复 支持 反对

使用道具 举报

蓝光币
1123
发表于 2021-10-1 14:48:12 | 显示全部楼层

这东西我收了!谢谢楼主!蓝光电影网真好!
回复 支持 反对

使用道具 举报

蓝光币
4
发表于 2021-10-5 01:45:14 | 显示全部楼层
感谢分享
回复

使用道具 举报

蓝光币
2
发表于 2021-10-8 12:08:39 | 显示全部楼层
楼主发贴辛苦了,谢谢楼主分享!我觉得蓝光电影网是注册对了!
回复 支持 反对

使用道具 举报

蓝光币
171
发表于 6 天前 | 显示全部楼层

这东西我收了!谢谢楼主!蓝光电影网真好!
回复 支持 反对

使用道具 举报

蓝光币
2
发表于 4 天前 | 显示全部楼层

这东西我收了!谢谢楼主!蓝光电影网真好!
回复 支持 反对

使用道具 举报

蓝光币
14
发表于 4 天前 | 显示全部楼层
楼主发贴辛苦了,谢谢楼主分享!我觉得蓝光电影网是注册对了!
回复 支持 反对

使用道具 举报

蓝光币
67
发表于 前天 14:34 | 显示全部楼层

楼主太厉害了!楼主,电影应该很好看我觉得蓝光电影网真是个好地方!
回复 支持 反对

使用道具 举报

懒得打字嘛,点击右侧快捷回复 【右侧内容,后台自定义】
您需要登录后才可以回帖 登录 | 立即加入

本版积分规则

Archiver|小黑屋| 蓝光电影网 |网站地图

Copyright © 2021 Comsenz Inc. Powered by 蓝光电影网

蓝光电影网

本站内容由用户自主分享和转载自互联网,转载目的在于传递更多信息,并不代表本网赞同其观点和对其真实性负责。

如有侵权、违反国家法律政策行为,请联系我们,我们会第一时间及时清除和处理!

举报反馈邮箱:[email protected]

快速回复 返回顶部 返回列表