找回密码

蓝光电影网

查看: 234|回复: 7

[8bit.SDR] 月光光心慌慌4 Halloween.4.The.Return.of.Michael.Myers.1988.2160p.BluRay.x264.8bit.SDR.DTS-HD.MA.TrueHD.7.1.Atmos-SWTYBLZ 45.77GB

[复制链接]
蓝光币
511
发表于 7 天前 | 显示全部楼层 |阅读模式


◎译  名 月光光心慌慌4/Halloween 4/万圣节4/捉鬼节4
◎片  名 Halloween 4: The Return of Michael Myers
◎年  代 1988
◎产  地 美国
◎类  别 惊悚 / 可骇
◎语  言 英语
◎上映日期 1988-10-21
◎豆瓣评分 6.4/10 from 1191 users
◎豆瓣链接 https://movie.douban.com/subject/1296288/
◎片  长 88 分钟
◎导  演 德怀特·H·里特 Dwight H. Little
◎编  剧 阿兰·B·麦克埃尔罗伊 Alan B. McElroy / Larry Rattner Larry Rattner
◎主  演 唐纳德·普利森斯 Donald Pleasence
       艾莉·康纳尔 Ellie Cornell
       丹妮尔·哈丽丝 Danielle Harris
       迈克尔·帕塔奇 Michael Pataki
       卡门·菲尔皮 Carmen Filpi
       乔治·P·威尔伯 George P. Wilbur
       吉纳·罗斯 Gene Ross
       Robert Conder Robert Conder
        Erik Preston
       D.L. Walker D.L. Walker
       Beverly Rowland Beverly Rowland
       雷蒙德·奥康纳 Raymond O'Connor
       杰夫·奥尔森 Jeff Olson
       M.J. McDonnell M.J. McDonnell
       Stephanie Dees Stephanie Dees
       凯瑟琳·金蒙特 Kathleen Kinmont
       迈克尔·弗林 Michael Flynn
       大卫·詹森 David Jensen
◎标  签 可骇 | 美国 | 惊悚 | 月光光心慌慌 | 1988 | 美国电影 | 血腥 | 典范
◎简  介


  10年前,残暴无情的迈克尔?梅尔(George P. Wilbur 饰)堕入永久的昏迷当中,方圆的人们获得长久的安好。时候推移到1988年10月31日的万圣节,迈克尔被雷蒙德神经病中心的医护职员转去另一个医院。救护车上,医护职员随意的闲谈却叫醒了这个沉睡已有10个年头的恶魔。苏醒的迈克尔得知他姐姐的女儿杰米(Danielle Harris 饰)住在哈登菲尔德,遂将医护职员杀戮,单身前往甥女的住处。
  
  被克鲁赛斯一家收养的杰米,多年来延续为关于舅舅的可骇噩梦所困扰。她想不到的是,那梦中的恶魔行将出现在她的眼前,摧毁杰米至今仍未安静的生活……
  1. Video
  2. ID                                       : 1
  3. Format                                   : AVC
  4. Format/Info                              : Advanced Video Codec
  5. Format profile                           : [email protected]
  6. Format settings                          : CABAC / 5 Ref Frames
  7. Format settings, CABAC                   : Yes
  8. Format settings, Reference frames        : 5 frames
  9. Codec ID                                 : V_MPEG4/ISO/AVC
  10. Duration                                 : 1 h 28 min
  11. Bit rate                                 : 65.6 Mb/s
  12. Width                                    : 3 840 pixels
  13. Height                                   : 2 076 pixels
  14. Display aspect ratio                     : 1.85:1
  15. Frame rate mode                          : Constant
  16. Frame rate                               : 24.000 FPS
  17. Color space                              : YUV
  18. Chroma subsampling                       : 4:2:0
  19. Bit depth                                : 8 bits
  20. Scan type                                : Progressive
  21. Bits/(Pixel*Frame)                       : 0.343
  22. Stream size                              : 40.5 GiB (89%)
  23. Writing library                          : x264 core 157 r2935 545de2f
  24. Encoding settings                        : cabac=1 / ref=5 / deblock=1:-1:-1 / analyse=0x3:0x113 / me=umh / subme=10 / psy=1 / psy_rd=1.00:0.15 / mixed_ref=1 / me_range=48 / chroma_me=1 / trellis=2 / 8x8dct=1 / cqm=0 / deadzone=21,11 / fast_pskip=1 / chroma_qp_offset=-3 / threads=54 / lookahead_threads=4 / sliced_threads=0 / nr=0 / decimate=0 / interlaced=0 / bluray_compat=0 / constrained_intra=0 / bframes=3 / b_pyramid=2 / b_adapt=2 / b_bias=0 / direct=3 / weightb=1 / open_gop=0 / weightp=2 / keyint=250 / keyint_min=24 / scenecut=40 / intra_refresh=0 / rc_lookahead=50 / rc=crf / mbtree=1 / crf=21.0 / qcomp=0.60 / qpmin=0 / qpmax=69 / qpstep=4 / ip_ratio=1.40 / aq=1:1.00
  25. Default                                  : Yes
  26. Forced                                   : No
  27. Audio #1
  28. ID                                       : 2
  29. ID in the original source medium         : 4355 (0x1103)
  30. Format                                   : MLP FBA 16-ch
  31. Format/Info                              : Meridian Lossless Packing FBA with 16-channel presentation
  32. Commercial name                          : Dolby TrueHD with Dolby Atmos
  33. Codec ID                                 : A_TRUEHD
  34. Duration                                 : 1 h 28 min
  35. Bit rate mode                            : Variable
  36. Bit rate                                 : 3 477 kb/s
  37. Maximum bit rate                         : 5 322 kb/s
  38. Channel(s)                               : 8 channels
  39. Channel layout                           : L R C LFE Ls Rs Lb Rb
  40. Sampling rate                            : 48.0 kHz
  41. Frame rate                               : 1 200.000 FPS (40 SPF)
  42. Bit depth                                : 24 bits
  43. Compression mode                         : Lossless
  44. Stream size                              : 2.15 GiB (5%)
  45. Title                                    : TrueHD 7.1 Atmos
  46. Language                                 : English
  47. Default                                  : Yes
  48. Forced                                   : No
  49. Original source medium                   : Blu-ray
  50. Number of dynamic objects                : 11
  51. Bed channel count                        : 1 channel
  52. Bed channel configuration                : LFE
  53. Audio #2
  54. ID                                       : 3
  55. Format                                   : DTS XLL
  56. Format/Info                              : Digital Theater Systems
  57. Commercial name                          : DTS-HD Master Audio
  58. Codec ID                                 : A_DTS
  59. Duration                                 : 1 h 28 min
  60. Bit rate mode                            : Variable
  61. Bit rate                                 : 4 025 kb/s
  62. Channel(s)                               : 8 channels
  63. Channel layout                           : C L R LFE Lb Rb Lss Rss
  64. Sampling rate                            : 48.0 kHz
  65. Frame rate                               : 93.750 FPS (512 SPF)
  66. Bit depth                                : 24 bits
  67. Compression mode                         : Lossless
  68. Stream size                              : 2.48 GiB (5%)
  69. Title                                    : DTS-HD MA 7.1
  70. Language                                 : English
  71. Default                                  : No
  72. Forced                                   : No
  73. Audio #3
  74. ID                                       : 4
  75. ID in the original source medium         : 4354 (0x1102)
  76. Format                                   : AC-3
  77. Format/Info                              : Audio Coding 3
  78. Commercial name                          : Dolby Digital
  79. Codec ID                                 : A_AC3
  80. Duration                                 : 1 h 28 min
  81. Bit rate mode                            : Constant
  82. Bit rate                                 : 448 kb/s
  83. Channel(s)                               : 6 channels
  84. Channel layout                           : L R C LFE Ls Rs
  85. Sampling rate                            : 48.0 kHz
  86. Frame rate                               : 31.250 FPS (1536 SPF)
  87. Compression mode                         : Lossy
  88. Stream size                              : 283 MiB (1%)
  89. Title                                    : DD 5.1
  90. Language                                 : English
  91. Service kind                             : Complete Main
  92. Default                                  : No
  93. Forced                                   : No
  94. Original source medium                   : Blu-ray
  95. Text #1
  96. ID                                       : 5
  97. Format                                   : UTF-8
  98. Codec ID                                 : S_TEXT/UTF8
  99. Codec ID/Info                            : UTF-8 Plain Text
  100. Duration                                 : 1 h 27 min
  101. Bit rate                                 : 50 b/s
  102. Count of elements                        : 1195
  103. Stream size                              : 32.5 KiB (0%)
  104. Title                                    : SRT
  105. Language                                 : English
  106. Default                                  : Yes
  107. Forced                                   : No
  108. Text #2
  109. ID                                       : 6
  110. ID in the original source medium         : 4768 (0x12A0)
  111. Format                                   : PGS
  112. Muxing mode                              : zlib
  113. Codec ID                                 : S_HDMV/PGS
  114. Codec ID/Info                            : Picture based subtitle format used on BDs/HD-DVDs
  115. Duration                                 : 1 h 27 min
  116. Bit rate                                 : 28.9 kb/s
  117. Count of elements                        : 2402
  118. Stream size                              : 18.0 MiB (0%)
  119. Language                                 : English
  120. Default                                  : No
  121. Forced                                   : No
  122. Original source medium                   : Blu-ray
  123. Menu
  124. 00:00:00.000                             : Chapter 00
  125. 00:06:44.583                             : Chapter 01
  126. 00:14:20.375                             : Chapter 02
  127. 00:22:42.041                             : Chapter 03
  128. 00:30:25.125                             : Chapter 04
  129. 00:38:47.500                             : Chapter 05
  130. 00:47:10.000                             : Chapter 06
  131. 00:54:35.750                             : Chapter 07
  132. 01:01:02.666                             : Chapter 08
  133. 01:08:17.833                             : Chapter 09
  134. 01:14:21.958                             : Chapter 10
  135. 01:20:58.500                             : Chapter 11
复制代码






                                       
                                       

                                       
                                       
                                       




回复

使用道具 举报

蓝光币
5
发表于 7 天前 | 显示全部楼层
真的非常感谢楼主分享,很好的资源
回复 支持 反对

使用道具 举报

蓝光币
64
发表于 7 天前 | 显示全部楼层

楼主太厉害了!楼主,电影应该很好看我觉得蓝光电影网真是个好地方!
回复 支持 反对

使用道具 举报

蓝光币
299
发表于 7 天前 | 显示全部楼层

谢谢楼主分享
回复 支持 反对

使用道具 举报

蓝光币
222
发表于 7 天前 | 显示全部楼层
楼主发贴辛苦了,谢谢楼主分享!我觉得蓝光电影网是注册对了!
回复 支持 反对

使用道具 举报

蓝光币
25
发表于 7 天前 | 显示全部楼层
楼主发贴辛苦了,谢谢楼主分享!我觉得蓝光电影网是注册对了!
回复 支持 反对

使用道具 举报

蓝光币
167
发表于 7 天前 | 显示全部楼层
楼主发贴辛苦了,谢谢楼主分享!我觉得蓝光电影网是注册对了!
回复 支持 反对

使用道具 举报

蓝光币
35
发表于 7 天前 | 显示全部楼层
楼主发贴辛苦了,谢谢楼主分享!我觉得蓝光电影网是注册对了!
回复 支持 反对

使用道具 举报

懒得打字嘛,点击右侧快捷回复 【右侧内容,后台自定义】
您需要登录后才可以回帖 登录 | 立即加入

本版积分规则

Archiver|小黑屋| 蓝光电影网 |网站地图

Copyright © 2021 Comsenz Inc. Powered by 蓝光电影网

蓝光电影网

本站内容由用户自主分享和转载自互联网,转载目的在于传递更多信息,并不代表本网赞同其观点和对其真实性负责。

如有侵权、违反国家法律政策行为,请联系我们,我们会第一时间及时清除和处理!

举报反馈邮箱:[email protected]

快速回复 返回顶部 返回列表