找回密码

蓝光电影网

查看: 102|回复: 1

[10bit.SDR] 月光光心慌慌4 Halloween.4.The.Return.of.Michael.Myers.1988.2160p.BluRay.x265.10bit.SDR.DTS-HD.MA.TrueHD.7.1.Atmos-SWTYBLZ 41.61GB

[复制链接]
蓝光币
511
发表于 7 天前 | 显示全部楼层 |阅读模式


◎译  名 月光光心慌慌4/Halloween 4/万圣节4/捉鬼节4
◎片  名 Halloween 4: The Return of Michael Myers
◎年  代 1988
◎产  地 美国
◎类  别 惊悚 / 可骇
◎语  言 英语
◎上映日期 1988-10-21
◎豆瓣评分 6.4/10 from 1191 users
◎豆瓣链接 https://movie.douban.com/subject/1296288/
◎片  长 88 分钟
◎导  演 德怀特·H·里特 Dwight H. Little
◎编  剧 阿兰·B·麦克埃尔罗伊 Alan B. McElroy / Larry Rattner Larry Rattner
◎主  演 唐纳德·普利森斯 Donald Pleasence
       艾莉·康纳尔 Ellie Cornell
       丹妮尔·哈丽丝 Danielle Harris
       迈克尔·帕塔奇 Michael Pataki
       卡门·菲尔皮 Carmen Filpi
       乔治·P·威尔伯 George P. Wilbur
       吉纳·罗斯 Gene Ross
       Robert Conder Robert Conder
        Erik Preston
       D.L. Walker D.L. Walker
       Beverly Rowland Beverly Rowland
       雷蒙德·奥康纳 Raymond O'Connor
       杰夫·奥尔森 Jeff Olson
       M.J. McDonnell M.J. McDonnell
       Stephanie Dees Stephanie Dees
       凯瑟琳·金蒙特 Kathleen Kinmont
       迈克尔·弗林 Michael Flynn
       大卫·詹森 David Jensen
◎标  签 可骇 | 美国 | 惊悚 | 月光光心慌慌 | 1988 | 美国电影 | 血腥 | 典范
◎简  介


  10年前,残暴无情的迈克尔?梅尔(George P. Wilbur 饰)堕入永久的昏迷当中,方圆的人们获得长久的安好。时候推移到1988年10月31日的万圣节,迈克尔被雷蒙德神经病中心的医护职员转去另一个医院。救护车上,医护职员随意的闲谈却叫醒了这个沉睡已有10个年头的恶魔。苏醒的迈克尔得知他姐姐的女儿杰米(Danielle Harris 饰)住在哈登菲尔德,遂将医护职员杀戮,单身前往甥女的住处。
  
  被克鲁赛斯一家收养的杰米,多年来延续为关于舅舅的可骇噩梦所困扰。她想不到的是,那梦中的恶魔行将出现在她的眼前,摧毁杰米至今仍未安静的生活……
  1. Video
  2. ID                                       : 1
  3. Format                                   : HEVC
  4. Format/Info                              : High Efficiency Video Coding
  5. Format profile                           : Main [email protected]@High
  6. Codec ID                                 : V_MPEGH/ISO/HEVC
  7. Duration                                 : 1 h 28 min
  8. Bit rate                                 : 58.8 Mb/s
  9. Width                                    : 3 840 pixels
  10. Height                                   : 2 076 pixels
  11. Display aspect ratio                     : 1.85:1
  12. Frame rate mode                          : Constant
  13. Frame rate                               : 24.000 FPS
  14. Color space                              : YUV
  15. Chroma subsampling                       : 4:2:0
  16. Bit depth                                : 10 bits
  17. Bits/(Pixel*Frame)                       : 0.307
  18. Stream size                              : 36.3 GiB (88%)
  19. Writing library                          : x265 3.0ed72af837053:[Windows][GCC 8.2.0][64 bit] 10bit
  20. Encoding settings                        : cpuid=1111039 / frame-threads=6 / numa-pools=40 / wpp / no-pmode / no-pme / no-psnr / no-ssim / log-level=2 / input-csp=1 / input-res=3840x2076 / interlace=0 / total-frames=127209 / level-idc=51 / high-tier=1 / uhd-bd=0 / ref=3 / no-allow-non-conformance / repeat-headers / annexb / aud / hrd / info / hash=0 / no-temporal-layers / no-open-gop / min-keyint=1 / keyint=24 / gop-lookahead=0 / bframes=4 / b-adapt=2 / b-pyramid / bframe-bias=0 / rc-lookahead=25 / lookahead-slices=4 / scenecut=40 / radl=0 / no-splice / no-intra-refresh / ctu=64 / min-cu-size=8 / no-rect / no-amp / max-tu-size=32 / tu-inter-depth=1 / tu-intra-depth=1 / limit-tu=0 / rdoq-level=0 / dynamic-rd=0.00 / no-ssim-rd / signhide / no-tskip / nr-intra=0 / nr-inter=0 / no-constrained-intra / strong-intra-smoothing / max-merge=2 / limit-refs=3 / no-limit-modes / me=1 / subme=2 / merange=57 / temporal-mvp / weightp / no-weightb / no-analyze-src-pics / deblock=0:0 / no-sao / no-sao-non-deblock / rd=3 / no-early-skip / rskip / no-fast-intra / no-tskip-fast / no-cu-lossless / no-b-intra / no-splitrd-skip / rdpenalty=0 / psy-rd=2.00 / psy-rdoq=0.00 / no-rd-refine / no-lossless / cbqpoffs=0 / crqpoffs=0 / rc=crf / crf=19.0 / qcomp=0.60 / qpstep=4 / stats-write=0 / stats-read=0 / vbv-maxrate=160000 / vbv-bufsize=160000 / vbv-init=0.9 / crf-max=0.0 / crf-min=0.0 / ipratio=1.40 / pbratio=1.30 / aq-mode=1 / aq-strength=1.00 / cutree / zone-count=0 / no-strict-cbr / qg-size=32 / no-rc-grain / qpmax=69 / qpmin=0 / no-const-vbv / sar=1 / overscan=0 / videoformat=5 / range=0 / colorprim=2 / transfer=2 / colormatrix=2 / chromaloc=0 / display-window=0 / max-cll=0,0 / min-luma=0 / max-luma=1023 / log2-max-poc-lsb=8 / vui-timing-info / vui-hrd-info / slices=1 / opt-qp-pps / opt-ref-list-length-pps / no-multi-pass-opt-rps / scenecut-bias=0.05 / no-opt-cu-delta-qp / no-aq-motion / no-hdr / no-hdr-opt / no-dhdr10-opt / no-idr-recovery-sei / analysis-reuse-level=5 / scale-factor=0 / refine-intra=0 / refine-inter=0 / refine-mv=0 / refine-ctu-distortion=0 / no-limit-sao / ctu-info=0 / no-lowpass-dct / refine-analysis-type=0 / copy-pic=1 / max-ausize-factor=1.0 / no-dynamic-refine / no-single-sei / no-hevc-aq / qp-adaptation-range=1.00
  21. Default                                  : Yes
  22. Forced                                   : No
  23. Audio #1
  24. ID                                       : 2
  25. ID in the original source medium         : 4355 (0x1103)
  26. Format                                   : MLP FBA 16-ch
  27. Format/Info                              : Meridian Lossless Packing FBA with 16-channel presentation
  28. Commercial name                          : Dolby TrueHD with Dolby Atmos
  29. Codec ID                                 : A_TRUEHD
  30. Duration                                 : 1 h 28 min
  31. Bit rate mode                            : Variable
  32. Bit rate                                 : 3 477 kb/s
  33. Maximum bit rate                         : 5 322 kb/s
  34. Channel(s)                               : 8 channels
  35. Channel layout                           : L R C LFE Ls Rs Lb Rb
  36. Sampling rate                            : 48.0 kHz
  37. Frame rate                               : 1 200.000 FPS (40 SPF)
  38. Bit depth                                : 24 bits
  39. Compression mode                         : Lossless
  40. Stream size                              : 2.15 GiB (5%)
  41. Title                                    : TrueHD 7.1 Atmos
  42. Language                                 : English
  43. Default                                  : Yes
  44. Forced                                   : No
  45. Original source medium                   : Blu-ray
  46. Number of dynamic objects                : 11
  47. Bed channel count                        : 1 channel
  48. Bed channel configuration                : LFE
  49. Audio #2
  50. ID                                       : 3
  51. Format                                   : DTS XLL
  52. Format/Info                              : Digital Theater Systems
  53. Commercial name                          : DTS-HD Master Audio
  54. Codec ID                                 : A_DTS
  55. Duration                                 : 1 h 28 min
  56. Bit rate mode                            : Variable
  57. Bit rate                                 : 4 025 kb/s
  58. Channel(s)                               : 8 channels
  59. Channel layout                           : C L R LFE Lb Rb Lss Rss
  60. Sampling rate                            : 48.0 kHz
  61. Frame rate                               : 93.750 FPS (512 SPF)
  62. Bit depth                                : 24 bits
  63. Compression mode                         : Lossless
  64. Stream size                              : 2.48 GiB (6%)
  65. Title                                    : DTS-HD MA 7.1
  66. Language                                 : English
  67. Default                                  : No
  68. Forced                                   : No
  69. Audio #3
  70. ID                                       : 4
  71. ID in the original source medium         : 4354 (0x1102)
  72. Format                                   : AC-3
  73. Format/Info                              : Audio Coding 3
  74. Commercial name                          : Dolby Digital
  75. Codec ID                                 : A_AC3
  76. Duration                                 : 1 h 28 min
  77. Bit rate mode                            : Constant
  78. Bit rate                                 : 448 kb/s
  79. Channel(s)                               : 6 channels
  80. Channel layout                           : L R C LFE Ls Rs
  81. Sampling rate                            : 48.0 kHz
  82. Frame rate                               : 31.250 FPS (1536 SPF)
  83. Compression mode                         : Lossy
  84. Stream size                              : 283 MiB (1%)
  85. Title                                    : DD 5.1
  86. Language                                 : English
  87. Service kind                             : Complete Main
  88. Default                                  : No
  89. Forced                                   : No
  90. Original source medium                   : Blu-ray
  91. Text #1
  92. ID                                       : 5
  93. Format                                   : UTF-8
  94. Codec ID                                 : S_TEXT/UTF8
  95. Codec ID/Info                            : UTF-8 Plain Text
  96. Duration                                 : 1 h 27 min
  97. Bit rate                                 : 50 b/s
  98. Count of elements                        : 1195
  99. Stream size                              : 32.5 KiB (0%)
  100. Title                                    : SRT
  101. Language                                 : English
  102. Default                                  : Yes
  103. Forced                                   : No
  104. Text #2
  105. ID                                       : 6
  106. ID in the original source medium         : 4768 (0x12A0)
  107. Format                                   : PGS
  108. Muxing mode                              : zlib
  109. Codec ID                                 : S_HDMV/PGS
  110. Codec ID/Info                            : Picture based subtitle format used on BDs/HD-DVDs
  111. Duration                                 : 1 h 27 min
  112. Bit rate                                 : 28.9 kb/s
  113. Count of elements                        : 2402
  114. Stream size                              : 18.0 MiB (0%)
  115. Language                                 : English
  116. Default                                  : No
  117. Forced                                   : No
  118. Original source medium                   : Blu-ray
  119. Menu
  120. 00:00:00.000                             : Chapter 00
  121. 00:06:44.583                             : Chapter 01
  122. 00:14:20.375                             : Chapter 02
  123. 00:22:42.041                             : Chapter 03
  124. 00:30:25.125                             : Chapter 04
  125. 00:38:47.500                             : Chapter 05
  126. 00:47:10.000                             : Chapter 06
  127. 00:54:35.750                             : Chapter 07
  128. 01:01:02.666                             : Chapter 08
  129. 01:08:17.833                             : Chapter 09
  130. 01:14:21.958                             : Chapter 10
  131. 01:20:58.500                             : Chapter 11
复制代码






                                       
                                       

                                       
                                       
                                       




回复

使用道具 举报

蓝光币
0
发表于 7 天前 | 显示全部楼层
谢谢楼主分享,非常好的资源
回复 支持 反对

使用道具 举报

懒得打字嘛,点击右侧快捷回复 【右侧内容,后台自定义】
您需要登录后才可以回帖 登录 | 立即加入

本版积分规则

Archiver|小黑屋| 蓝光电影网 |网站地图

Copyright © 2021 Comsenz Inc. Powered by 蓝光电影网

蓝光电影网

本站内容由用户自主分享和转载自互联网,转载目的在于传递更多信息,并不代表本网赞同其观点和对其真实性负责。

如有侵权、违反国家法律政策行为,请联系我们,我们会第一时间及时清除和处理!

举报反馈邮箱:[email protected]

快速回复 返回顶部 返回列表