找回密码

蓝光电影网

查看: 142|回复: 2

[10bit.HDR] 狼人 The.Wolf.Man.1941.2160p.UHD.BluRay.x265.10bit.HDR.FLAC.2.0-B0MBARDiERS 28.60GB

[复制链接]
蓝光币
511
发表于 7 天前 | 显示全部楼层 |阅读模式


◎译  名 狼人/Destiny
◎片  名 The Wolf Man
◎年  代 1941
◎产  地 美国
◎类  别 剧情 / 可骇
◎语  言 英语
◎上映日期 1941-12-12
◎豆瓣评分 7.1/10 from 320 users
◎豆瓣链接 https://movie.douban.com/subject/1298790/
◎片  长 70 分钟
◎导  演 乔治·瓦格纳 George Waggner
◎编  剧 科特· 西奥德梅克 Curt Siodmak
◎主  演 小朗·钱尼 Lon Chaney Jr.
       贝拉·卢戈西 Bela Lugosi
       华伦·威廉 Warren William
       克劳德·雷恩斯 Claude Rains
       伊芙琳·安克尔斯 Evelyn Ankers
       多丽丝·劳埃德 Doris Lloyd
       奥拉夫·许滕 Olaf Hytten
       Eddie Polo Eddie Polo
       奥托拉内史姑娘 Ottola Nesmith
       玛丽亚·彭斯卡娅 Maria Ouspenskaya
       哈里·斯塔布斯 Harry Stubbs
       Tom Stevenson Tom Stevenson
       Ernie Stanton Ernie Stanton
       Eric Wilton Eric Wilton
       J·M·克里根 J.M. Kerrigan
       福里斯特·哈维 Forrester Harvey
       拉尔夫·贝拉米 Ralph Bellamy
       帕垂克·诺尔斯 Patric Knowles
       Jessie Arnold Jessie Arnold
       哈利·考丁 Harry Cording
       Margaret Fealy Margaret Fealy
       莱兰·霍奇森 Leyland Hodgson
       费·海姆 Fay Helm
       吉布森·格沃兰德 Gibson Gowland
◎标  签 美国 | 可骇 | 狼人 | 1941 | 1940s | 惊悚 | 美国电影 | 典范
◎简  介


  《狼人》是乔治·瓦格纳执导,克劳德·雷恩斯等主演的奇异可骇电影。故事发生在维多利亚时代的英格兰。仆人公从美国返回故乡,没想到却遭到一只狼人的攻击,身材就此发生变异,每到月圆之夜便兽性大发,对月长嚎……

  1. Video
  2. ID : 1
  3. Format : HEVC
  4. Format/Info : High Efficiency Video Coding
  5. Format profile : Main [email protected]@High
  6. HDR format : SMPTE ST 2086, HDR10 compatible
  7. Codec ID : V_MPEGH/ISO/HEVC
  8. Duration : 1 h 9 min
  9. Bit rate : 56.9 Mb/s
  10. Width : 2 916 pixels
  11. Height : 2 160 pixels
  12. Display aspect ratio : 4:3
  13. Frame rate mode : Constant
  14. Frame rate : 23.976 (24000/1001) FPS
  15. Color space : YUV
  16. Chroma subsampling : 4:2:0 (Type 2)
  17. Bit depth : 10 bits
  18. Bits/(Pixel*Frame) : 0.377
  19. Stream size : 27.8 GiB (98%)
  20. Writing library : x265 3.5+13-4c6880de4:[Windows][GCC 11.2.0][64 bit] 10bit
  21. Encoding settings : cpuid=1176575 / frame-threads=6 / numa-pools=36 / wpp / no-pmode / no-pme / no-psnr / no-ssim / log-level=2 / input-csp=1 / input-res=2916x2160 / interlace=0 / total-frames=100584 / level-idc=51 / high-tier=1 / uhd-bd=0 / ref=4 / no-allow-non-conformance / repeat-headers / annexb / aud / no-eob / no-eos / hrd / info / hash=0 / no-temporal-layers / open-gop / min-keyint=23 / keyint=250 / gop-lookahead=0 / bframes=4 / b-adapt=2 / b-pyramid / bframe-bias=0 / rc-lookahead=25 / lookahead-slices=4 / scenecut=40 / no-hist-scenecut / radl=0 / no-splice / no-intra-refresh / ctu=64 / min-cu-size=8 / rect / no-amp / max-tu-size=32 / tu-inter-depth=1 / tu-intra-depth=1 / limit-tu=0 / rdoq-level=2 / dynamic-rd=0.00 / no-ssim-rd / signhide / no-tskip / nr-intra=0 / nr-inter=0 / no-constrained-intra / strong-intra-smoothing / max-merge=3 / limit-refs=3 / limit-modes / me=3 / subme=3 / merange=57 / temporal-mvp / no-frame-dup / no-hme / weightp / no-weightb / no-analyze-src-pics / deblock=-3:-3 / no-sao / no-sao-non-deblock / rd=4 / selective-sao=0 / no-early-skip / rskip / no-fast-intra / no-tskip-fast / no-cu-lossless / no-b-intra / no-splitrd-skip / rdpenalty=0 / psy-rd=2.00 / psy-rdoq=1.00 / no-rd-refine / no-lossless / cbqpoffs=0 / crqpoffs=0 / rc=crf / crf=15.0 / qcomp=0.60 / qpstep=4 / stats-write=0 / stats-read=0 / vbv-maxrate=160000 / vbv-bufsize=160000 / vbv-init=0.9 / min-vbv-fullness=50.0 / max-vbv-fullness=80.0 / crf-max=0.0 / crf-min=0.0 / ipratio=1.40 / pbratio=1.30 / aq-mode=2 / aq-strength=1.00 / cutree / zone-count=0 / no-strict-cbr / qg-size=32 / no-rc-grain / qpmax=69 / qpmin=0 / no-const-vbv / sar=1 / overscan=0 / videoformat=5 / range=0 / colorprim=9 / transfer=16 / colormatrix=9 / chromaloc=1 / chromaloc-top=2 / chromaloc-bottom=2 / display-window=0 / master-display=G(13250,34500)B(7500,3000)R(34000,16000)WP(15635,16450)L(10000000,50) / cll=887,40 / min-luma=0 / max-luma=1023 / log2-max-poc-lsb=8 / vui-timing-info / vui-hrd-info / slices=1 / no-opt-qp-pps / no-opt-ref-list-length-pps / no-multi-pass-opt-rps / scenecut-bias=0.05 / hist-threshold=0.03 / no-opt-cu-delta-qp / no-aq-motion / hdr10 / hdr10-opt / no-dhdr10-opt / no-idr-recovery-sei / analysis-reuse-level=0 / analysis-save-reuse-level=0 / analysis-load-reuse-level=0 / scale-factor=0 / refine-intra=0 / refine-inter=0 / refine-mv=1 / refine-ctu-distortion=0 / no-limit-sao / ctu-info=0 / no-lowpass-dct / refine-analysis-type=0 / copy-pic=1 / max-ausize-factor=1.0 / no-dynamic-refine / no-single-sei / no-hevc-aq / no-svt / no-field / qp-adaptation-range=1.00 / scenecut-aware-qp=0conformance-window-offsets / right=0 / bottom=0 / decoder-max-rate=0 / no-vbv-live-multi-pass
  22. Default : Yes
  23. Forced : No
  24. Color range : Limited
  25. Color primaries : BT.2020
  26. Transfer characteristics : PQ
  27. Matrix coefficients : BT.2020 non-constant
  28. Mastering display color primaries : Display P3
  29. Mastering display luminance : min: 0.0050 cd/m2, max: 1000 cd/m2
  30. Maximum Content Light Level : 887 cd/m2
  31. Maximum Frame-Average Light Level : 40 cd/m2

  32. Audio #1
  33. ID : 2
  34. Format : FLAC
  35. Format/Info : Free Lossless Audio Codec
  36. Codec ID : A_FLAC
  37. Duration : 1 h 9 min
  38. Bit rate mode : Variable
  39. Bit rate : 579 kb/s
  40. Channel(s) : 2 channels
  41. Channel layout : L R
  42. Sampling rate : 48.0 kHz
  43. Frame rate : 11.719 FPS (4096 SPF)
  44. Bit depth : 24 bits
  45. Compression mode : Lossless
  46. Stream size : 290 MiB (1%)
  47. Writing library : libFLAC 1.2.1 (UTC 2007-09-17)
  48. Language : English
  49. Default : Yes
  50. Forced : No

  51. Audio #2
  52. ID : 3
  53. Format : AAC LC
  54. Format/Info : Advanced Audio Codec Low Complexity
  55. Codec ID : A_AAC-2
  56. Duration : 1 h 9 min
  57. Bit rate : 86.9 kb/s
  58. Channel(s) : 2 channels
  59. Channel layout : L R
  60. Sampling rate : 48.0 kHz
  61. Frame rate : 46.875 FPS (1024 SPF)
  62. Compression mode : Lossy
  63. Delay relative to video : 9 ms
  64. Stream size : 43.4 MiB (0%)
  65. Title : Commentary
  66. Language : English
  67. Default : Yes
  68. Forced : No

  69. Text #1
  70. ID : 4
  71. Format : PGS
  72. Muxing mode : zlib
  73. Codec ID : S_HDMV/PGS
  74. Codec ID/Info : Picture based subtitle format used on BDs/HD-DVDs
  75. Duration : 1 h 7 min
  76. Bit rate : 41.5 kb/s
  77. Count of elements : 1891
  78. Stream size : 19.9 MiB (0%)
  79. Title : English SDH
  80. Language : English
  81. Default : No
  82. Forced : No

  83. Text #2
  84. ID : 5
  85. Format : PGS
  86. Muxing mode : zlib
  87. Codec ID : S_HDMV/PGS
  88. Codec ID/Info : Picture based subtitle format used on BDs/HD-DVDs
  89. Duration : 1 h 8 min
  90. Bit rate : 29.7 kb/s
  91. Count of elements : 1329
  92. Stream size : 14.5 MiB (0%)
  93. Title : French
  94. Language : French
  95. Default : No
  96. Forced : No

  97. Text #3
  98. ID : 6
  99. Format : PGS
  100. Muxing mode : zlib
  101. Codec ID : S_HDMV/PGS
  102. Codec ID/Info : Picture based subtitle format used on BDs/HD-DVDs
  103. Duration : 1 h 8 min
  104. Bit rate : 32.7 kb/s
  105. Count of elements : 1349
  106. Stream size : 15.9 MiB (0%)
  107. Title : Spanish
  108. Language : Spanish
  109. Default : No
  110. Forced : No

  111. Text #4
  112. ID : 7
  113. Format : PGS
  114. Muxing mode : zlib
  115. Codec ID : S_HDMV/PGS
  116. Codec ID/Info : Picture based subtitle format used on BDs/HD-DVDs
  117. Duration : 1 h 7 min
  118. Bit rate : 35.2 kb/s
  119. Count of elements : 1472
  120. Stream size : 17.1 MiB (0%)
  121. Title : Spanish
  122. Language : Spanish
  123. Default : No
  124. Forced : No

  125. Text #5
  126. ID : 8
  127. Format : PGS
  128. Muxing mode : zlib
  129. Codec ID : S_HDMV/PGS
  130. Codec ID/Info : Picture based subtitle format used on BDs/HD-DVDs
  131. Duration : 1 h 7 min
  132. Bit rate : 22.0 kb/s
  133. Count of elements : 1470
  134. Stream size : 10.6 MiB (0%)
  135. Title : Japanese
  136. Language : Japanese
  137. Default : No
  138. Forced : No

  139. Text #6
  140. ID : 9
  141. Format : PGS
  142. Muxing mode : zlib
  143. Codec ID : S_HDMV/PGS
  144. Codec ID/Info : Picture based subtitle format used on BDs/HD-DVDs
  145. Duration : 1 h 8 min
  146. Bit rate : 33.8 kb/s
  147. Count of elements : 1341
  148. Stream size : 16.5 MiB (0%)
  149. Title : German
  150. Language : German
  151. Default : No
  152. Forced : No

  153. Text #7
  154. ID : 10
  155. Format : PGS
  156. Muxing mode : zlib
  157. Codec ID : S_HDMV/PGS
  158. Codec ID/Info : Picture based subtitle format used on BDs/HD-DVDs
  159. Duration : 1 h 8 min
  160. Bit rate : 29.8 kb/s
  161. Count of elements : 1349
  162. Stream size : 14.5 MiB (0%)
  163. Title : Italian
  164. Language : Italian
  165. Default : No
  166. Forced : No

  167. Text #8
  168. ID : 11
  169. Format : PGS
  170. Muxing mode : zlib
  171. Codec ID : S_HDMV/PGS
  172. Codec ID/Info : Picture based subtitle format used on BDs/HD-DVDs
  173. Duration : 1 h 8 min
  174. Bit rate : 28.1 kb/s
  175. Count of elements : 1198
  176. Stream size : 13.7 MiB (0%)
  177. Title : Dutch
  178. Language : Dutch
  179. Default : No
  180. Forced : No

  181. Text #9
  182. ID : 12
  183. Format : PGS
  184. Muxing mode : zlib
  185. Codec ID : S_HDMV/PGS
  186. Codec ID/Info : Picture based subtitle format used on BDs/HD-DVDs
  187. Duration : 1 h 8 min
  188. Bit rate : 31.4 kb/s
  189. Count of elements : 1349
  190. Stream size : 15.3 MiB (0%)
  191. Title : Danish
  192. Language : Danish
  193. Default : No
  194. Forced : No

  195. Text #10
  196. ID : 13
  197. Format : PGS
  198. Muxing mode : zlib
  199. Codec ID : S_HDMV/PGS
  200. Codec ID/Info : Picture based subtitle format used on BDs/HD-DVDs
  201. Duration : 1 h 8 min
  202. Bit rate : 33.2 kb/s
  203. Count of elements : 1349
  204. Stream size : 16.2 MiB (0%)
  205. Title : Finnish
  206. Language : Finnish
  207. Default : No
  208. Forced : No

  209. Text #11
  210. ID : 14
  211. Format : PGS
  212. Muxing mode : zlib
  213. Codec ID : S_HDMV/PGS
  214. Codec ID/Info : Picture based subtitle format used on BDs/HD-DVDs
  215. Duration : 1 h 8 min
  216. Bit rate : 31.4 kb/s
  217. Count of elements : 1349
  218. Stream size : 15.3 MiB (0%)
  219. Title : Norwegian
  220. Language : Norwegian
  221. Default : No
  222. Forced : No

  223. Text #12
  224. ID : 15
  225. Format : PGS
  226. Muxing mode : zlib
  227. Codec ID : S_HDMV/PGS
  228. Codec ID/Info : Picture based subtitle format used on BDs/HD-DVDs
  229. Duration : 1 h 8 min
  230. Bit rate : 31.1 kb/s
  231. Count of elements : 1349
  232. Stream size : 15.2 MiB (0%)
  233. Title : Swedish
  234. Language : Swedish
  235. Default : No
  236. Forced : No

  237. Text #13
  238. ID : 16
  239. Format : PGS
  240. Muxing mode : zlib
  241. Codec ID : S_HDMV/PGS
  242. Codec ID/Info : Picture based subtitle format used on BDs/HD-DVDs
  243. Duration : 1 h 8 min
  244. Bit rate : 31.2 kb/s
  245. Count of elements : 1615
  246. Stream size : 15.2 MiB (0%)
  247. Title : Chinese
  248. Language : Chinese
  249. Default : No
  250. Forced : No

  251. Text #14
  252. ID : 17
  253. Format : PGS
  254. Muxing mode : zlib
  255. Codec ID : S_HDMV/PGS
  256. Codec ID/Info : Picture based subtitle format used on BDs/HD-DVDs
  257. Duration : 1 h 9 min
  258. Bit rate : 89.7 kb/s
  259. Count of elements : 2382
  260. Stream size : 44.6 MiB (0%)
  261. Title : Commentary
  262. Language : English
  263. Default : No
  264. Forced : No

  265. Text #15
  266. ID : 18
  267. Format : PGS
  268. Muxing mode : zlib
  269. Codec ID : S_HDMV/PGS
  270. Codec ID/Info : Picture based subtitle format used on BDs/HD-DVDs
  271. Duration : 1 h 9 min
  272. Bit rate : 67.4 kb/s
  273. Count of elements : 2288
  274. Stream size : 33.6 MiB (0%)
  275. Title : French
  276. Language : French
  277. Default : No
  278. Forced : No

  279. Text #16
  280. ID : 19
  281. Format : PGS
  282. Muxing mode : zlib
  283. Codec ID : S_HDMV/PGS
  284. Codec ID/Info : Picture based subtitle format used on BDs/HD-DVDs
  285. Duration : 1 h 9 min
  286. Bit rate : 71.3 kb/s
  287. Count of elements : 2288
  288. Stream size : 35.6 MiB (0%)
  289. Title : Spansih
  290. Language : Spanish
  291. Default : No
  292. Forced : No

  293. Text #17
  294. ID : 20
  295. Format : PGS
  296. Muxing mode : zlib
  297. Codec ID : S_HDMV/PGS
  298. Codec ID/Info : Picture based subtitle format used on BDs/HD-DVDs
  299. Duration : 1 h 9 min
  300. Bit rate : 48.1 kb/s
  301. Count of elements : 1821
  302. Stream size : 24.0 MiB (0%)
  303. Title : Japanese
  304. Language : Japanese
  305. Default : No
  306. Forced : No

  307. Text #18
  308. ID : 21
  309. Format : PGS
  310. Muxing mode : zlib
  311. Codec ID : S_HDMV/PGS
  312. Codec ID/Info : Picture based subtitle format used on BDs/HD-DVDs
  313. Duration : 1 h 9 min
  314. Bit rate : 70.8 kb/s
  315. Count of elements : 2185
  316. Stream size : 35.3 MiB (0%)
  317. Title : German
  318. Language : German
  319. Default : No
  320. Forced : No

  321. Text #19
  322. ID : 22
  323. Format : PGS
  324. Muxing mode : zlib
  325. Codec ID : S_HDMV/PGS
  326. Codec ID/Info : Picture based subtitle format used on BDs/HD-DVDs
  327. Duration : 1 h 9 min
  328. Bit rate : 74.2 kb/s
  329. Count of elements : 2288
  330. Stream size : 37.0 MiB (0%)
  331. Title : Italian
  332. Language : Italian
  333. Default : No
  334. Forced : No

  335. Text #20
  336. ID : 23
  337. Format : PGS
  338. Muxing mode : zlib
  339. Codec ID : S_HDMV/PGS
  340. Codec ID/Info : Picture based subtitle format used on BDs/HD-DVDs
  341. Duration : 1 h 8 min
  342. Bit rate : 363 b/s
  343. Count of elements : 14
  344. Stream size : 181 KiB (0%)
  345. Title : French
  346. Language : French
  347. Default : No
  348. Forced : No

  349. Text #21
  350. ID : 24
  351. Format : PGS
  352. Muxing mode : zlib
  353. Codec ID : S_HDMV/PGS
  354. Codec ID/Info : Picture based subtitle format used on BDs/HD-DVDs
  355. Duration : 26 s 694 ms
  356. Bit rate : 4 657 b/s
  357. Count of elements : 4
  358. Stream size : 15.2 KiB (0%)
  359. Title : Spanish
  360. Language : Spanish
  361. Default : No
  362. Forced : No

  363. Text #22
  364. ID : 25
  365. Format : PGS
  366. Muxing mode : zlib
  367. Codec ID : S_HDMV/PGS
  368. Codec ID/Info : Picture based subtitle format used on BDs/HD-DVDs
  369. Duration : 1 h 5 min
  370. Bit rate : 108 b/s
  371. Count of elements : 6
  372. Stream size : 51.9 KiB (0%)
  373. Title : Spanish
  374. Language : Spanish
  375. Default : No
  376. Forced : No

  377. Text #23
  378. ID : 26
  379. Format : PGS
  380. Muxing mode : zlib
  381. Codec ID : S_HDMV/PGS
  382. Codec ID/Info : Picture based subtitle format used on BDs/HD-DVDs
  383. Duration : 1 h 8 min
  384. Bit rate : 437 b/s
  385. Count of elements : 14
  386. Stream size : 218 KiB (0%)
  387. Title : German
  388. Language : German
  389. Default : No
  390. Forced : No

  391. Text #24
  392. ID : 27
  393. Format : PGS
  394. Muxing mode : zlib
  395. Codec ID : S_HDMV/PGS
  396. Codec ID/Info : Picture based subtitle format used on BDs/HD-DVDs
  397. Duration : 26 s 694 ms
  398. Bit rate : 2 475 b/s
  399. Count of elements : 4
  400. Stream size : 8.07 KiB (0%)
  401. Title : Italian
  402. Language : Italian
  403. Default : No
  404. Forced : No

  405. Menu
  406. 00:00:00.000 : Chapter 01
  407. 00:01:32.050 : Chapter 02
  408. 00:02:19.723 : Chapter 03
  409. 00:04:57.631 : Chapter 04
  410. 00:08:47.819 : Chapter 05
  411. 00:12:22.909 : Chapter 06
  412. 00:19:31.629 : Chapter 07
  413. 00:25:16.306 : Chapter 08
  414. 00:28:52.189 : Chapter 09
  415. 00:31:44.277 : Chapter 10
  416. 00:35:29.252 : Chapter 11
  417. 00:39:46.843 : Chapter 12
  418. 00:48:39.625 : Chapter 13
  419. 00:54:27.347 : Chapter 14
  420. 00:58:10.237 : Chapter 15
  421. 01:02:27.661 : Chapter 16
  422. 01:05:41.855 : Chapter 17
  423. 01:09:26.037 : Chapter 18
  424. 01:09:54.941 : Chapter 19
复制代码




                                       

                                       
                                       
                                       




回复

使用道具 举报

蓝光币
12
发表于 7 天前 | 显示全部楼层
楼主发贴辛苦了,谢谢楼主分享!我觉得蓝光电影网是注册对了!
回复 支持 反对

使用道具 举报

蓝光币
42
发表于 4 天前 | 显示全部楼层
感谢楼主分享,真心给个赞!!!!!!!!!!!!!!
回复 支持 反对

使用道具 举报

懒得打字嘛,点击右侧快捷回复 【右侧内容,后台自定义】
您需要登录后才可以回帖 登录 | 立即加入

本版积分规则

Archiver|小黑屋| 蓝光电影网 |网站地图

Copyright © 2021 Comsenz Inc. Powered by 蓝光电影网

蓝光电影网

本站内容由用户自主分享和转载自互联网,转载目的在于传递更多信息,并不代表本网赞同其观点和对其真实性负责。

如有侵权、违反国家法律政策行为,请联系我们,我们会第一时间及时清除和处理!

举报反馈邮箱:[email protected]

快速回复 返回顶部 返回列表