找回密码

蓝光电影网

查看: 75|回复: 0

[REMUX.HEVC] 科学怪人/弗兰肯斯坦 Frankenstein.1931.2160p.BluRay.REMUX.HEVC.DTS-HD.MA.2.0-FGT 46.44GB

[复制链接]
蓝光币
511
发表于 6 天前 | 显示全部楼层 |阅读模式

◎译  名 科学怪人/弗兰肯斯坦/魔鬼博士
◎片  名 Frankenstein
◎年  代 1931
◎产  地 美国
◎类  别 科幻 / 可骇
◎语  言 英语,拉丁语
◎上映日期 1931-11-21
◎豆瓣评分 7.5/10 from 6119 users
◎豆瓣链接 https://movie.douban.com/subject/1296929/
◎片  长 70 分钟
◎导  演 詹姆斯·惠尔 James Whale
◎编  剧 加勒特·富特 Garrett Fort / 弗朗西斯·爱德华·法拉格 Francis Edward Faragoh / 约翰·L·鲍尔德斯顿 John L. Balderston / 玛丽·雪莱 Mary Shelley / 佩吉·韦伯林 Peggy Webling / 理查德·沙耶尔 Richard Schayer / 罗伯特·弗洛里 Robert Florey / 约翰·罗素 John Russell
◎主  演 科林·克利夫 Colin Clive
       梅·克拉克 Mae Clarke
       约翰·博尔斯 John Boles
       波利斯·卡洛夫 Boris Karloff
       爱德华·范·斯隆 Edward Van Sloan
       Soledad Jiménez Soledad Jiménez
       弗雷德里克·克尔 Frederick Kerr
       Ellinor Vanderveer Ellinor Vanderveer
       Michael Mark Michael Mark
       Rose Plumer Rose Plumer
       塞西尔·雷诺兹 Cecil Reynolds
       Inez Palange Inez Palange
       玛丽·戈登 Mary Gordon
       Arletta Duncan Arletta Duncan
       德怀特·弗莱伊 Dwight Frye
       宝琳·摩尔 Pauline Moore
       Marilyn Harris Marilyn Harris
       西西莉娅·帕克 Cecilia Parker
       弗朗西斯·福特 Francis Ford
       Paul Panzer Paul Panzer
       莱昂内尔·贝尔莫尔 Lionel Belmore
       泰德·比林斯 Ted Billings
       Jack Curtis Jack Curtis
◎标  签 科幻 | 美国 | 可骇 | 科学怪人 | 惊悚 | 1931 | 1930s | 美国电影
◎简  介


  弗兰肯斯坦(科林·克利夫 Colin Clive 饰)是一个天赋科学家,他想像天主一样缔造生命,因而掉臂黉舍教授的否决,分开了大学,和助手到山上的一座古堡里做人体尝试。他从墓地等地方找来了各类人体残肢,还从黉舍尝试室偷了一颗大脑,操纵这些制造出一具人体。他的未婚妻伊丽莎 白(梅·克拉克 Mae Clarke 饰)出于担忧,就与好友(约翰·博尔斯 John Boles 饰)和黉舍教授一同去古堡尝试室找弗兰肯斯坦。正是在这个狂风雨之夜,弗兰肯斯坦的人体尝试完成了——他操纵雷电让手术台上的躯体有了生命。但是几天后,这个由科学家缔造出来的怪物起头不受控制,他先是把科学家的助手杀死,又起头进犯教授和科学家。
  
  因而,身心俱疲的科学家被接了回家,而且起头准备婚礼,而怪物则留给教授处置。可是怪物却把教授杀死了,从尝试台上逃了出来,一步一步走近村落,还把一个小女孩淹死。正在举行婚礼的弗兰肯斯坦对此浑然不知……
◎获奖情况
  第1届威尼斯电影节 ?(1932)
  观众票选奖(提名) 詹姆斯·惠尔
  1. Video
  2. ID                                       : 1
  3. ID in the original source medium         : 4113 (0x1011)
  4. Format                                   : HEVC
  5. Format/Info                              : High Efficiency Video Coding
  6. Format profile                           : Main [email protected]@High
  7. HDR format                               : SMPTE ST 2086, HDR10 compatible
  8. Codec ID                                 : V_MPEGH/ISO/HEVC
  9. Duration                                 : 1 h 10 min
  10. Bit rate                                 : 89.6 Mb/s
  11. Width                                    : 3 840 pixels
  12. Height                                   : 2 160 pixels
  13. Display aspect ratio                     : 16:9
  14. Frame rate mode                          : Constant
  15. Frame rate                               : 23.976 (24000/1001/189150) FPS
  16. Color space                              : YUV
  17. Chroma subsampling                       : 4:2:0 (Type 2)
  18. Bit depth                                : 10 bits
  19. Bits/(Pixel*Frame)                       : 0.451
  20. Stream size                              : 44.0 GiB (95%)
  21. Language                                 : English
  22. Default                                  : No
  23. Forced                                   : No
  24. Color range                              : Limited
  25. Color primaries                          : BT.2020
  26. Transfer characteristics                 : PQ
  27. Matrix coefficients                      : BT.2020 non-constant
  28. Mastering display color primaries        : Display P3
  29. Mastering display luminance              : min: 0.0050 cd/m2, max: 1000 cd/m2
  30. Maximum Content Light Level              : 944 cd/m2
  31. Maximum Frame-Average Light Level        : 41 cd/m2
  32. Original source medium                   : Blu-ray
  33. Audio #1
  34. ID                                       : 2
  35. ID in the original source medium         : 4352 (0x1100)
  36. Format                                   : DTS XLL
  37. Format/Info                              : Digital Theater Systems
  38. Commercial name                          : DTS-HD Master Audio
  39. Codec ID                                 : A_DTS
  40. Duration                                 : 1 h 10 min
  41. Bit rate mode                            : Variable
  42. Bit rate                                 : 1 847 kb/s
  43. Channel(s)                               : 2 channels
  44. Channel layout                           : L R
  45. Sampling rate                            : 48.0 kHz
  46. Frame rate                               : 93.750 FPS (512 SPF)
  47. Bit depth                                : 24 bits
  48. Compression mode                         : Lossless
  49. Stream size                              : 927 MiB (2%)
  50. Title                                    : Stereo
  51. Language                                 : English
  52. Default                                  : Yes
  53. Forced                                   : No
  54. Original source medium                   : Blu-ray
  55. Audio #2
  56. ID                                       : 3
  57. Format                                   : AC-3
  58. Format/Info                              : Audio Coding 3
  59. Commercial name                          : Dolby Digital
  60. Codec ID                                 : A_AC3
  61. Duration                                 : 1 h 10 min
  62. Bit rate mode                            : Constant
  63. Bit rate                                 : 640 kb/s
  64. Channel(s)                               : 2 channels
  65. Channel layout                           : L R
  66. Sampling rate                            : 48.0 kHz
  67. Frame rate                               : 31.250 FPS (1536 SPF)
  68. Compression mode                         : Lossy
  69. Stream size                              : 321 MiB (1%)
  70. Title                                    : DD 2.0
  71. Language                                 : English
  72. Service kind                             : Complete Main
  73. Default                                  : No
  74. Forced                                   : No
  75. Audio #3
  76. ID                                       : 4
  77. ID in the original source medium         : 4353 (0x1101)
  78. Format                                   : DTS
  79. Format/Info                              : Digital Theater Systems
  80. Codec ID                                 : A_DTS
  81. Duration                                 : 1 h 10 min
  82. Bit rate mode                            : Constant
  83. Bit rate                                 : 447 kb/s
  84. Channel(s)                               : 2 channels
  85. Channel layout                           : L R
  86. Sampling rate                            : 48.0 kHz
  87. Frame rate                               : 93.750 FPS (512 SPF)
  88. Bit depth                                : 24 bits
  89. Compression mode                         : Lossy
  90. Stream size                              : 224 MiB (0%)
  91. Title                                    : DTS 2.0
  92. Language                                 : French
  93. Default                                  : No
  94. Forced                                   : No
  95. Original source medium                   : Blu-ray
  96. Audio #4
  97. ID                                       : 5
  98. ID in the original source medium         : 4354 (0x1102)
  99. Format                                   : DTS
  100. Format/Info                              : Digital Theater Systems
  101. Codec ID                                 : A_DTS
  102. Duration                                 : 1 h 10 min
  103. Bit rate mode                            : Constant
  104. Bit rate                                 : 447 kb/s
  105. Channel(s)                               : 2 channels
  106. Channel layout                           : L R
  107. Sampling rate                            : 48.0 kHz
  108. Frame rate                               : 93.750 FPS (512 SPF)
  109. Bit depth                                : 24 bits
  110. Compression mode                         : Lossy
  111. Stream size                              : 224 MiB (0%)
  112. Title                                    : DTS 2.0
  113. Language                                 : Spanish
  114. Default                                  : No
  115. Forced                                   : No
  116. Original source medium                   : Blu-ray
  117. Audio #5
  118. ID                                       : 6
  119. ID in the original source medium         : 4355 (0x1103)
  120. Format                                   : DTS
  121. Format/Info                              : Digital Theater Systems
  122. Codec ID                                 : A_DTS
  123. Duration                                 : 1 h 10 min
  124. Bit rate mode                            : Constant
  125. Bit rate                                 : 447 kb/s
  126. Channel(s)                               : 2 channels
  127. Channel layout                           : L R
  128. Sampling rate                            : 48.0 kHz
  129. Frame rate                               : 93.750 FPS (512 SPF)
  130. Bit depth                                : 24 bits
  131. Compression mode                         : Lossy
  132. Stream size                              : 224 MiB (0%)
  133. Title                                    : DTS 2.0
  134. Language                                 : German
  135. Default                                  : No
  136. Forced                                   : No
  137. Original source medium                   : Blu-ray
  138. Audio #6
  139. ID                                       : 7
  140. ID in the original source medium         : 4356 (0x1104)
  141. Format                                   : DTS
  142. Format/Info                              : Digital Theater Systems
  143. Codec ID                                 : A_DTS
  144. Duration                                 : 1 h 10 min
  145. Bit rate mode                            : Constant
  146. Bit rate                                 : 447 kb/s
  147. Channel(s)                               : 2 channels
  148. Channel layout                           : L R
  149. Sampling rate                            : 48.0 kHz
  150. Frame rate                               : 93.750 FPS (512 SPF)
  151. Bit depth                                : 24 bits
  152. Compression mode                         : Lossy
  153. Stream size                              : 224 MiB (0%)
  154. Title                                    : DTS 2.0
  155. Language                                 : Italian
  156. Default                                  : No
  157. Forced                                   : No
  158. Original source medium                   : Blu-ray
  159. Audio #7
  160. ID                                       : 8
  161. ID in the original source medium         : 4357 (0x1105)
  162. Format                                   : AC-3
  163. Format/Info                              : Audio Coding 3
  164. Commercial name                          : Dolby Digital
  165. Codec ID                                 : A_AC3
  166. Duration                                 : 1 h 10 min
  167. Bit rate mode                            : Constant
  168. Bit rate                                 : 192 kb/s
  169. Channel(s)                               : 2 channels
  170. Channel layout                           : L R
  171. Sampling rate                            : 48.0 kHz
  172. Frame rate                               : 31.250 FPS (1536 SPF)
  173. Compression mode                         : Lossy
  174. Stream size                              : 96.4 MiB (0%)
  175. Title                                    : DD 2.0
  176. Language                                 : English
  177. Service kind                             : Complete Main
  178. Default                                  : No
  179. Forced                                   : No
  180. Original source medium                   : Blu-ray
  181. Audio #8
  182. ID                                       : 9
  183. ID in the original source medium         : 4358 (0x1106)
  184. Format                                   : AC-3
  185. Format/Info                              : Audio Coding 3
  186. Commercial name                          : Dolby Digital
  187. Codec ID                                 : A_AC3
  188. Duration                                 : 1 h 10 min
  189. Bit rate mode                            : Constant
  190. Bit rate                                 : 192 kb/s
  191. Channel(s)                               : 2 channels
  192. Channel layout                           : L R
  193. Sampling rate                            : 48.0 kHz
  194. Frame rate                               : 31.250 FPS (1536 SPF)
  195. Compression mode                         : Lossy
  196. Stream size                              : 96.4 MiB (0%)
  197. Title                                    : DD 2.0
  198. Language                                 : English
  199. Service kind                             : Complete Main
  200. Default                                  : No
  201. Forced                                   : No
  202. Original source medium                   : Blu-ray
  203. Text #1
  204. ID                                       : 10
  205. Format                                   : UTF-8
  206. Codec ID                                 : S_TEXT/UTF8
  207. Codec ID/Info                            : UTF-8 Plain Text
  208. Duration                                 : 1 h 9 min
  209. Bit rate                                 : 43 b/s
  210. Count of elements                        : 719
  211. Stream size                              : 22.1 KiB (0%)
  212. Title                                    : SRT
  213. Language                                 : English
  214. Default                                  : Yes
  215. Forced                                   : No
  216. Text #2
  217. ID                                       : 11
  218. ID in the original source medium         : 4768 (0x12A0)
  219. Format                                   : PGS
  220. Muxing mode                              : zlib
  221. Codec ID                                 : S_HDMV/PGS
  222. Codec ID/Info                            : Picture based subtitle format used on BDs/HD-DVDs
  223. Duration                                 : 1 h 9 min
  224. Bit rate                                 : 33.4 kb/s
  225. Count of elements                        : 1736
  226. Stream size                              : 16.5 MiB (0%)
  227. Language                                 : English
  228. Default                                  : No
  229. Forced                                   : No
  230. Original source medium                   : Blu-ray
  231. Text #3
  232. ID                                       : 12
  233. ID in the original source medium         : 4769 (0x12A1)
  234. Format                                   : PGS
  235. Muxing mode                              : zlib
  236. Codec ID                                 : S_HDMV/PGS
  237. Codec ID/Info                            : Picture based subtitle format used on BDs/HD-DVDs
  238. Duration                                 : 1 h 10 min
  239. Bit rate                                 : 25.3 kb/s
  240. Count of elements                        : 1221
  241. Stream size                              : 12.7 MiB (0%)
  242. Language                                 : French
  243. Default                                  : No
  244. Forced                                   : No
  245. Original source medium                   : Blu-ray
  246. Text #4
  247. ID                                       : 13
  248. ID in the original source medium         : 4769 (0x12A1)
  249. Format                                   : PGS
  250. Muxing mode                              : zlib
  251. Codec ID                                 : S_HDMV/PGS
  252. Codec ID/Info                            : Picture based subtitle format used on BDs/HD-DVDs
  253. Duration                                 : 1 h 1 min
  254. Bit rate                                 : 340 b/s
  255. Count of elements                        : 14
  256. Stream size                              : 153 KiB (0%)
  257. Language                                 : French
  258. Default                                  : No
  259. Forced                                   : No
  260. Original source medium                   : Blu-ray
  261. Text #5
  262. ID                                       : 14
  263. ID in the original source medium         : 4770 (0x12A2)
  264. Format                                   : PGS
  265. Muxing mode                              : zlib
  266. Codec ID                                 : S_HDMV/PGS
  267. Codec ID/Info                            : Picture based subtitle format used on BDs/HD-DVDs
  268. Duration                                 : 1 h 10 min
  269. Bit rate                                 : 25.2 kb/s
  270. Count of elements                        : 1188
  271. Stream size                              : 12.7 MiB (0%)
  272. Language                                 : Spanish
  273. Default                                  : No
  274. Forced                                   : No
  275. Original source medium                   : Blu-ray
  276. Text #6
  277. ID                                       : 15
  278. ID in the original source medium         : 4770 (0x12A2)
  279. Format                                   : PGS
  280. Muxing mode                              : zlib
  281. Codec ID                                 : S_HDMV/PGS
  282. Codec ID/Info                            : Picture based subtitle format used on BDs/HD-DVDs
  283. Duration                                 : 1 h 10 min
  284. Bit rate                                 : 885 b/s
  285. Count of elements                        : 40
  286. Stream size                              : 454 KiB (0%)
  287. Language                                 : Spanish
  288. Default                                  : No
  289. Forced                                   : No
  290. Original source medium                   : Blu-ray
  291. Text #7
  292. ID                                       : 16
  293. ID in the original source medium         : 4771 (0x12A3)
  294. Format                                   : PGS
  295. Muxing mode                              : zlib
  296. Codec ID                                 : S_HDMV/PGS
  297. Codec ID/Info                            : Picture based subtitle format used on BDs/HD-DVDs
  298. Duration                                 : 1 h 9 min
  299. Bit rate                                 : 26.9 kb/s
  300. Count of elements                        : 1234
  301. Stream size                              : 13.3 MiB (0%)
  302. Language                                 : Spanish
  303. Default                                  : No
  304. Forced                                   : No
  305. Original source medium                   : Blu-ray
  306. Text #8
  307. ID                                       : 17
  308. ID in the original source medium         : 4772 (0x12A4)
  309. Format                                   : PGS
  310. Muxing mode                              : zlib
  311. Codec ID                                 : S_HDMV/PGS
  312. Codec ID/Info                            : Picture based subtitle format used on BDs/HD-DVDs
  313. Duration                                 : 1 h 9 min
  314. Bit rate                                 : 16.4 kb/s
  315. Count of elements                        : 1160
  316. Stream size                              : 8.11 MiB (0%)
  317. Language                                 : Japanese
  318. Default                                  : No
  319. Forced                                   : No
  320. Original source medium                   : Blu-ray
  321. Text #9
  322. ID                                       : 18
  323. ID in the original source medium         : 4773 (0x12A5)
  324. Format                                   : PGS
  325. Muxing mode                              : zlib
  326. Codec ID                                 : S_HDMV/PGS
  327. Codec ID/Info                            : Picture based subtitle format used on BDs/HD-DVDs
  328. Duration                                 : 1 h 10 min
  329. Bit rate                                 : 25.5 kb/s
  330. Count of elements                        : 1189
  331. Stream size                              : 12.8 MiB (0%)
  332. Language                                 : German
  333. Default                                  : No
  334. Forced                                   : No
  335. Original source medium                   : Blu-ray
  336. Text #10
  337. ID                                       : 19
  338. ID in the original source medium         : 4773 (0x12A5)
  339. Format                                   : PGS
  340. Muxing mode                              : zlib
  341. Codec ID                                 : S_HDMV/PGS
  342. Codec ID/Info                            : Picture based subtitle format used on BDs/HD-DVDs
  343. Duration                                 : 1 h 10 min
  344. Bit rate                                 : 989 b/s
  345. Count of elements                        : 46
  346. Stream size                              : 508 KiB (0%)
  347. Language                                 : German
  348. Default                                  : No
  349. Forced                                   : No
  350. Original source medium                   : Blu-ray
  351. Text #11
  352. ID                                       : 20
  353. ID in the original source medium         : 4774 (0x12A6)
  354. Format                                   : PGS
  355. Muxing mode                              : zlib
  356. Codec ID                                 : S_HDMV/PGS
  357. Codec ID/Info                            : Picture based subtitle format used on BDs/HD-DVDs
  358. Duration                                 : 1 h 10 min
  359. Bit rate                                 : 24.4 kb/s
  360. Count of elements                        : 1188
  361. Stream size                              : 12.2 MiB (0%)
  362. Language                                 : Italian
  363. Default                                  : No
  364. Forced                                   : No
  365. Original source medium                   : Blu-ray
  366. Text #12
  367. ID                                       : 21
  368. ID in the original source medium         : 4774 (0x12A6)
  369. Format                                   : PGS
  370. Muxing mode                              : zlib
  371. Codec ID                                 : S_HDMV/PGS
  372. Codec ID/Info                            : Picture based subtitle format used on BDs/HD-DVDs
  373. Duration                                 : 1 h 3 min
  374. Bit rate                                 : 399 b/s
  375. Count of elements                        : 16
  376. Stream size                              : 186 KiB (0%)
  377. Language                                 : Italian
  378. Default                                  : No
  379. Forced                                   : No
  380. Original source medium                   : Blu-ray
  381. Text #13
  382. ID                                       : 22
  383. ID in the original source medium         : 4775 (0x12A7)
  384. Format                                   : PGS
  385. Muxing mode                              : zlib
  386. Codec ID                                 : S_HDMV/PGS
  387. Codec ID/Info                            : Picture based subtitle format used on BDs/HD-DVDs
  388. Duration                                 : 1 h 10 min
  389. Bit rate                                 : 23.0 kb/s
  390. Count of elements                        : 955
  391. Stream size                              : 11.5 MiB (0%)
  392. Language                                 : Dutch
  393. Default                                  : No
  394. Forced                                   : No
  395. Original source medium                   : Blu-ray
  396. Text #14
  397. ID                                       : 23
  398. ID in the original source medium         : 4776 (0x12A8)
  399. Format                                   : PGS
  400. Muxing mode                              : zlib
  401. Codec ID                                 : S_HDMV/PGS
  402. Codec ID/Info                            : Picture based subtitle format used on BDs/HD-DVDs
  403. Duration                                 : 1 h 10 min
  404. Bit rate                                 : 25.0 kb/s
  405. Count of elements                        : 1189
  406. Stream size                              : 12.5 MiB (0%)
  407. Language                                 : Danish
  408. Default                                  : No
  409. Forced                                   : No
  410. Original source medium                   : Blu-ray
  411. Text #15
  412. ID                                       : 24
  413. ID in the original source medium         : 4777 (0x12A9)
  414. Format                                   : PGS
  415. Muxing mode                              : zlib
  416. Codec ID                                 : S_HDMV/PGS
  417. Codec ID/Info                            : Picture based subtitle format used on BDs/HD-DVDs
  418. Duration                                 : 1 h 10 min
  419. Bit rate                                 : 25.2 kb/s
  420. Count of elements                        : 1189
  421. Stream size                              : 12.6 MiB (0%)
  422. Language                                 : Finnish
  423. Default                                  : No
  424. Forced                                   : No
  425. Original source medium                   : Blu-ray
  426. Text #16
  427. ID                                       : 25
  428. ID in the original source medium         : 4778 (0x12AA)
  429. Format                                   : PGS
  430. Muxing mode                              : zlib
  431. Codec ID                                 : S_HDMV/PGS
  432. Codec ID/Info                            : Picture based subtitle format used on BDs/HD-DVDs
  433. Duration                                 : 1 h 10 min
  434. Bit rate                                 : 24.4 kb/s
  435. Count of elements                        : 1187
  436. Stream size                              : 12.2 MiB (0%)
  437. Language                                 : Norwegian
  438. Default                                  : No
  439. Forced                                   : No
  440. Original source medium                   : Blu-ray
  441. Text #17
  442. ID                                       : 26
  443. ID in the original source medium         : 4779 (0x12AB)
  444. Format                                   : PGS
  445. Muxing mode                              : zlib
  446. Codec ID                                 : S_HDMV/PGS
  447. Codec ID/Info                            : Picture based subtitle format used on BDs/HD-DVDs
  448. Duration                                 : 1 h 10 min
  449. Bit rate                                 : 25.1 kb/s
  450. Count of elements                        : 1322
  451. Stream size                              : 12.6 MiB (0%)
  452. Language                                 : Swedish
  453. Default                                  : No
  454. Forced                                   : No
  455. Original source medium                   : Blu-ray
  456. Text #18
  457. ID                                       : 27
  458. ID in the original source medium         : 4780 (0x12AC)
  459. Format                                   : PGS
  460. Muxing mode                              : zlib
  461. Codec ID                                 : S_HDMV/PGS
  462. Codec ID/Info                            : Picture based subtitle format used on BDs/HD-DVDs
  463. Duration                                 : 1 h 9 min
  464. Bit rate                                 : 24.0 kb/s
  465. Count of elements                        : 1362
  466. Stream size                              : 12.0 MiB (0%)
  467. Language                                 : Chinese
  468. Default                                  : No
  469. Forced                                   : No
  470. Original source medium                   : Blu-ray
  471. Text #19
  472. ID                                       : 28
  473. ID in the original source medium         : 4781 (0x12AD)
  474. Format                                   : PGS
  475. Muxing mode                              : zlib
  476. Codec ID                                 : S_HDMV/PGS
  477. Codec ID/Info                            : Picture based subtitle format used on BDs/HD-DVDs
  478. Duration                                 : 1 h 9 min
  479. Bit rate                                 : 75.9 kb/s
  480. Count of elements                        : 2134
  481. Stream size                              : 37.8 MiB (0%)
  482. Title                                    : COMMENTARY
  483. Language                                 : English
  484. Default                                  : No
  485. Forced                                   : No
  486. Original source medium                   : Blu-ray
  487. Text #20
  488. ID                                       : 29
  489. ID in the original source medium         : 4782 (0x12AE)
  490. Format                                   : PGS
  491. Muxing mode                              : zlib
  492. Codec ID                                 : S_HDMV/PGS
  493. Codec ID/Info                            : Picture based subtitle format used on BDs/HD-DVDs
  494. Duration                                 : 1 h 10 min
  495. Bit rate                                 : 60.3 kb/s
  496. Count of elements                        : 1966
  497. Stream size                              : 30.2 MiB (0%)
  498. Title                                    : COMMENTARY
  499. Language                                 : French
  500. Default                                  : No
  501. Forced                                   : No
  502. Original source medium                   : Blu-ray
  503. Text #21
  504. ID                                       : 30
  505. ID in the original source medium         : 4783 (0x12AF)
  506. Format                                   : PGS
  507. Muxing mode                              : zlib
  508. Codec ID                                 : S_HDMV/PGS
  509. Codec ID/Info                            : Picture based subtitle format used on BDs/HD-DVDs
  510. Duration                                 : 1 h 10 min
  511. Bit rate                                 : 67.3 kb/s
  512. Count of elements                        : 1954
  513. Stream size                              : 33.8 MiB (0%)
  514. Title                                    : COMMENTARY
  515. Language                                 : Spanish
  516. Default                                  : No
  517. Forced                                   : No
  518. Original source medium                   : Blu-ray
  519. Text #22
  520. ID                                       : 31
  521. ID in the original source medium         : 4784 (0x12B0)
  522. Format                                   : PGS
  523. Muxing mode                              : zlib
  524. Codec ID                                 : S_HDMV/PGS
  525. Codec ID/Info                            : Picture based subtitle format used on BDs/HD-DVDs
  526. Duration                                 : 1 h 9 min
  527. Bit rate                                 : 44.9 kb/s
  528. Count of elements                        : 1676
  529. Stream size                              : 22.4 MiB (0%)
  530. Title                                    : COMMENTARY
  531. Language                                 : Japanese
  532. Default                                  : No
  533. Forced                                   : No
  534. Original source medium                   : Blu-ray
  535. Text #23
  536. ID                                       : 32
  537. ID in the original source medium         : 4785 (0x12B1)
  538. Format                                   : PGS
  539. Muxing mode                              : zlib
  540. Codec ID                                 : S_HDMV/PGS
  541. Codec ID/Info                            : Picture based subtitle format used on BDs/HD-DVDs
  542. Duration                                 : 1 h 10 min
  543. Bit rate                                 : 67.7 kb/s
  544. Count of elements                        : 1946
  545. Stream size                              : 33.9 MiB (0%)
  546. Title                                    : COMMENTARY
  547. Language                                 : German
  548. Default                                  : No
  549. Forced                                   : No
  550. Original source medium                   : Blu-ray
  551. Text #24
  552. ID                                       : 33
  553. ID in the original source medium         : 4786 (0x12B2)
  554. Format                                   : PGS
  555. Muxing mode                              : zlib
  556. Codec ID                                 : S_HDMV/PGS
  557. Codec ID/Info                            : Picture based subtitle format used on BDs/HD-DVDs
  558. Duration                                 : 1 h 10 min
  559. Bit rate                                 : 68.5 kb/s
  560. Count of elements                        : 1966
  561. Stream size                              : 34.3 MiB (0%)
  562. Title                                    : COMMENTARY
  563. Language                                 : Italian
  564. Default                                  : No
  565. Forced                                   : No
  566. Original source medium                   : Blu-ray
  567. Text #25
  568. ID                                       : 34
  569. ID in the original source medium         : 4787 (0x12B3)
  570. Format                                   : PGS
  571. Muxing mode                              : zlib
  572. Codec ID                                 : S_HDMV/PGS
  573. Codec ID/Info                            : Picture based subtitle format used on BDs/HD-DVDs
  574. Duration                                 : 1 h 9 min
  575. Bit rate                                 : 92.3 kb/s
  576. Count of elements                        : 2775
  577. Stream size                              : 46.2 MiB (0%)
  578. Title                                    : COMMENTARY
  579. Language                                 : English
  580. Default                                  : No
  581. Forced                                   : No
  582. Original source medium                   : Blu-ray
  583. Text #26
  584. ID                                       : 35
  585. ID in the original source medium         : 4788 (0x12B4)
  586. Format                                   : PGS
  587. Muxing mode                              : zlib
  588. Codec ID                                 : S_HDMV/PGS
  589. Codec ID/Info                            : Picture based subtitle format used on BDs/HD-DVDs
  590. Duration                                 : 1 h 10 min
  591. Bit rate                                 : 80.8 kb/s
  592. Count of elements                        : 2708
  593. Stream size                              : 40.6 MiB (0%)
  594. Title                                    : COMMENTARY
  595. Language                                 : French
  596. Default                                  : No
  597. Forced                                   : No
  598. Original source medium                   : Blu-ray
  599. Text #27
  600. ID                                       : 36
  601. ID in the original source medium         : 4789 (0x12B5)
  602. Format                                   : PGS
  603. Muxing mode                              : zlib
  604. Codec ID                                 : S_HDMV/PGS
  605. Codec ID/Info                            : Picture based subtitle format used on BDs/HD-DVDs
  606. Duration                                 : 1 h 10 min
  607. Bit rate                                 : 85.5 kb/s
  608. Count of elements                        : 2712
  609. Stream size                              : 42.9 MiB (0%)
  610. Title                                    : COMMENTARY
  611. Language                                 : Spanish
  612. Default                                  : No
  613. Forced                                   : No
  614. Original source medium                   : Blu-ray
  615. Text #28
  616. ID                                       : 37
  617. ID in the original source medium         : 4790 (0x12B6)
  618. Format                                   : PGS
  619. Muxing mode                              : zlib
  620. Codec ID                                 : S_HDMV/PGS
  621. Codec ID/Info                            : Picture based subtitle format used on BDs/HD-DVDs
  622. Duration                                 : 1 h 9 min
  623. Bit rate                                 : 46.0 kb/s
  624. Count of elements                        : 1782
  625. Stream size                              : 23.0 MiB (0%)
  626. Title                                    : COMMENTARY
  627. Language                                 : Japanese
  628. Default                                  : No
  629. Forced                                   : No
  630. Original source medium                   : Blu-ray
  631. Text #29
  632. ID                                       : 38
  633. ID in the original source medium         : 4791 (0x12B7)
  634. Format                                   : PGS
  635. Muxing mode                              : zlib
  636. Codec ID                                 : S_HDMV/PGS
  637. Codec ID/Info                            : Picture based subtitle format used on BDs/HD-DVDs
  638. Duration                                 : 1 h 10 min
  639. Bit rate                                 : 89.5 kb/s
  640. Count of elements                        : 2712
  641. Stream size                              : 44.9 MiB (0%)
  642. Title                                    : COMMENTARY
  643. Language                                 : German
  644. Default                                  : No
  645. Forced                                   : No
  646. Original source medium                   : Blu-ray
  647. Text #30
  648. ID                                       : 39
  649. ID in the original source medium         : 4792 (0x12B8)
  650. Format                                   : PGS
  651. Muxing mode                              : zlib
  652. Codec ID                                 : S_HDMV/PGS
  653. Codec ID/Info                            : Picture based subtitle format used on BDs/HD-DVDs
  654. Duration                                 : 1 h 10 min
  655. Bit rate                                 : 80.6 kb/s
  656. Count of elements                        : 2712
  657. Stream size                              : 40.4 MiB (0%)
  658. Title                                    : COMMENTARY
  659. Language                                 : Italian
  660. Default                                  : No
  661. Forced                                   : No
  662. Original source medium                   : Blu-ray
  663. Text #31
  664. ID                                       : 40
  665. ID in the original source medium         : 4793 (0x12B9)
  666. Format                                   : PGS
  667. Muxing mode                              : zlib
  668. Codec ID                                 : S_HDMV/PGS
  669. Codec ID/Info                            : Picture based subtitle format used on BDs/HD-DVDs
  670. Duration                                 : 1 h 9 min
  671. Bit rate                                 : 24.8 kb/s
  672. Count of elements                        : 324
  673. Stream size                              : 12.3 MiB (0%)
  674. Language                                 : English
  675. Default                                  : No
  676. Forced                                   : No
  677. Original source medium                   : Blu-ray
  678. Text #32
  679. ID                                       : 41
  680. ID in the original source medium         : 4794 (0x12BA)
  681. Format                                   : PGS
  682. Muxing mode                              : zlib
  683. Codec ID                                 : S_HDMV/PGS
  684. Codec ID/Info                            : Picture based subtitle format used on BDs/HD-DVDs
  685. Duration                                 : 1 h 10 min
  686. Bit rate                                 : 24.1 kb/s
  687. Count of elements                        : 324
  688. Stream size                              : 12.1 MiB (0%)
  689. Language                                 : French
  690. Default                                  : No
  691. Forced                                   : No
  692. Original source medium                   : Blu-ray
  693. Text #33
  694. ID                                       : 42
  695. ID in the original source medium         : 4795 (0x12BB)
  696. Format                                   : PGS
  697. Muxing mode                              : zlib
  698. Codec ID                                 : S_HDMV/PGS
  699. Codec ID/Info                            : Picture based subtitle format used on BDs/HD-DVDs
  700. Duration                                 : 1 h 10 min
  701. Bit rate                                 : 25.2 kb/s
  702. Count of elements                        : 324
  703. Stream size                              : 12.6 MiB (0%)
  704. Language                                 : Spanish
  705. Default                                  : No
  706. Forced                                   : No
  707. Original source medium                   : Blu-ray
  708. Text #34
  709. ID                                       : 43
  710. ID in the original source medium         : 4796 (0x12BC)
  711. Format                                   : PGS
  712. Muxing mode                              : zlib
  713. Codec ID                                 : S_HDMV/PGS
  714. Codec ID/Info                            : Picture based subtitle format used on BDs/HD-DVDs
  715. Duration                                 : 1 h 10 min
  716. Bit rate                                 : 26.6 kb/s
  717. Count of elements                        : 324
  718. Stream size                              : 13.4 MiB (0%)
  719. Language                                 : German
  720. Default                                  : No
  721. Forced                                   : No
  722. Original source medium                   : Blu-ray
  723. Text #35
  724. ID                                       : 44
  725. ID in the original source medium         : 4797 (0x12BD)
  726. Format                                   : PGS
  727. Muxing mode                              : zlib
  728. Codec ID                                 : S_HDMV/PGS
  729. Codec ID/Info                            : Picture based subtitle format used on BDs/HD-DVDs
  730. Duration                                 : 1 h 10 min
  731. Bit rate                                 : 23.6 kb/s
  732. Count of elements                        : 324
  733. Stream size                              : 11.9 MiB (0%)
  734. Language                                 : Italian
  735. Default                                  : No
  736. Forced                                   : No
  737. Original source medium                   : Blu-ray
  738. Menu
  739. 00:00:00.000                             : Chapter 01
  740. 00:02:03.039                             : Chapter 02
  741. 00:06:41.150                             : Chapter 03
  742. 00:14:09.265                             : Chapter 04
  743. 00:18:29.399                             : Chapter 05
  744. 00:23:00.629                             : Chapter 06
  745. 00:30:48.304                             : Chapter 07
  746. 00:34:22.685                             : Chapter 08
  747. 00:35:21.869                             : Chapter 09
  748. 00:42:00.476                             : Chapter 10
  749. 00:47:53.412                             : Chapter 11
  750. 00:53:41.218                             : Chapter 12
  751. 00:58:16.576                             : Chapter 13
  752. 01:03:49.992                             : Chapter 14
  753. 01:05:57.036                             : Chapter 15
  754. 01:07:57.531                             : Chapter 16
复制代码






                                       
                                       

                                       
                                       
                                       




回复

使用道具 举报

懒得打字嘛,点击右侧快捷回复 【右侧内容,后台自定义】
您需要登录后才可以回帖 登录 | 立即加入

本版积分规则

Archiver|小黑屋| 蓝光电影网 |网站地图

Copyright © 2021 Comsenz Inc. Powered by 蓝光电影网

蓝光电影网

本站内容由用户自主分享和转载自互联网,转载目的在于传递更多信息,并不代表本网赞同其观点和对其真实性负责。

如有侵权、违反国家法律政策行为,请联系我们,我们会第一时间及时清除和处理!

举报反馈邮箱:[email protected]

快速回复 返回顶部 返回列表