找回密码

蓝光电影网

查看: 225|回复: 6

[10bit.HDR] 情枭的黎明/卡利托之路 Carlitos.Way.1993.2160p.UHD.BluRay.x265.10bit.HDR.DTS-X.7.1-SWTYBLZ 44.22GB

[复制链接]
蓝光币
511
发表于 6 天前 | 显示全部楼层 |阅读模式


◎译  名 情枭的拂晓/卡利托之路/卡利托的方式/角头风云(台)
◎片  名 Carlito's Way
◎年  代 1993
◎产  地 美国
◎类  别 剧情 / 惊悚 / 犯罪
◎语  言 英语,西班牙语
◎上映日期 1993-11-10
◎豆瓣评分 8.7/10 from 35075 users
◎豆瓣链接 https://movie.douban.com/subject/1292646/
◎片  长 144 分钟
◎导  演 布莱恩·德·帕尔玛 Brian De Palma
◎编  剧 大卫·凯普 David Koepp
◎主  演 阿尔·帕西诺 Al Pacino
       西恩·潘 Sean Penn
       佩内洛普·安·米勒 Penelope Ann Miller
       约翰·雷吉扎莫 John Leguizamo
       维果·莫腾森 Viggo Mortensen
       詹姆斯·瑞布霍恩 James Rebhorn
       亚德里安·帕斯达 Adrian Pasdar
       路易斯·古兹曼 Luis Guzmán
       英格丽德·罗杰斯 Ingrid Rogers
       Daniel Margotta Daniel Margotta
       约翰·霍伊特 John Hoyt
       Dan Brennan Dan Brennan
◎标  签 阿尔·帕西诺 | 黑帮 | 犯罪 | 美国 | AlPacino | 美国电影 | 1993 | 剧情
◎简  介


  卡利多(阿尔?帕西诺 Al Pacino 饰)因贩毒而被判入狱30年,在他入狱的第五年,律师大卫(西恩?潘 Sean Penn  饰)将他从牢狱救了出来。卡利多出狱后的理想就是赚够7万5千美圆分开这里和还清欠大卫的人情。决心洗心革面的卡利多却摆脱不了命运的玩弄,当他勉为其难地答应表弟作为旁观者加入一次毒品买卖,他卷入了一场黑吃黑的活动。当他保住了毒品后,他从毒贩那边获得了2万5千美圆作为报酬。
  
  卡利多将这笔钱入股到一家名为天堂乐园的夜总会后,他起头寻觅他的女人,凯尔。当卡利多找到凯尔后,两人的关系在奥妙中盘旋。这时,大卫收了一位黑手党首领的钱,答应帮助他的伙伴逃狱。因而,大卫找来了卡利多帮手。虽然凯尔苦苦请求,为了报恩,卡利多还是答应了去履行这一危险使命……
◎获奖情况
  第51届金球奖 ?(1994)
  电影类最好男配角(提名) 西恩·潘
  电影类最好女配角(提名) 佩内洛普·安·米勒

  1. Video
  2. ID : 1
  3. Format : HEVC
  4. Format/Info : High Efficiency Video Coding
  5. Format profile : Main [email protected]@High
  6. HDR format : SMPTE ST 2086, HDR10 compatible
  7. Codec ID : V_MPEGH/ISO/HEVC
  8. Duration : 2 h 24 min
  9. Bit rate : 39.5 Mb/s
  10. Width : 3 840 pixels
  11. Height : 1 632 pixels
  12. Display aspect ratio : 2.35:1
  13. Frame rate mode : Constant
  14. Frame rate : 23.976 (24000/1001) FPS
  15. Color space : YUV
  16. Chroma subsampling : 4:2:0 (Type 2)
  17. Bit depth : 10 bits
  18. Bits/(Pixel*Frame) : 0.263
  19. Stream size : 39.8 GiB (90%)
  20. Writing library : x265 3.0_Au+10-74a8672ea4f7:[Windows][GCC 8.2.1][64 bit] 10bit
  21. Encoding settings : cpuid=1111039 / frame-threads=6 / numa-pools=40 / wpp / no-pmode / no-pme / no-psnr / no-ssim / log-level=2 / input-csp=1 / input-res=3840x1632 / interlace=0 / total-frames=0 / level-idc=51 / high-tier=1 / uhd-bd=0 / ref=3 / no-allow-non-conformance / repeat-headers / annexb / aud / hrd / info / hash=0 / no-temporal-layers / no-open-gop / min-keyint=1 / keyint=24 / gop-lookahead=0 / bframes=4 / b-adapt=2 / b-pyramid / bframe-bias=0 / rc-lookahead=25 / lookahead-slices=4 / scenecut=40 / radl=0 / no-splice / no-intra-refresh / ctu=64 / min-cu-size=8 / no-rect / no-amp / max-tu-size=32 / tu-inter-depth=1 / tu-intra-depth=1 / limit-tu=0 / rdoq-level=0 / dynamic-rd=0.00 / no-ssim-rd / signhide / no-tskip / nr-intra=0 / nr-inter=0 / no-constrained-intra / strong-intra-smoothing / max-merge=2 / limit-refs=3 / no-limit-modes / me=1 / subme=2 / merange=57 / temporal-mvp / weightp / no-weightb / no-analyze-src-pics / deblock=0:0 / no-sao / no-sao-non-deblock / rd=3 / no-early-skip / rskip / no-fast-intra / no-tskip-fast / no-cu-lossless / no-b-intra / no-splitrd-skip / rdpenalty=0 / psy-rd=2.00 / psy-rdoq=0.00 / no-rd-refine / no-lossless / cbqpoffs=0 / crqpoffs=0 / rc=crf / crf=17.0 / qcomp=0.60 / qpstep=4 / stats-write=0 / stats-read=0 / vbv-maxrate=160000 / vbv-bufsize=160000 / vbv-init=0.9 / crf-max=0.0 / crf-min=0.0 / ipratio=1.40 / pbratio=1.30 / aq-mode=1 / aq-strength=1.00 / cutree / zone-count=0 / no-strict-cbr / qg-size=32 / no-rc-grain / qpmax=69 / qpmin=0 / no-const-vbv / sar=1 / overscan=0 / videoformat=5 / range=0 / colorprim=9 / transfer=16 / colormatrix=9 / chromaloc=1 / chromaloc-top=2 / chromaloc-bottom=2 / display-window=0 / master-display=G(13250,34500)B(7500,3000)R(34000,16000)WP(15635,16450)L(10000000,50) / max-cll=933,84 / min-luma=0 / max-luma=1023 / log2-max-poc-lsb=8 / vui-timing-info / vui-hrd-info / slices=1 / opt-qp-pps / opt-ref-list-length-pps / no-multi-pass-opt-rps / scenecut-bias=0.05 / no-opt-cu-delta-qp / no-aq-motion / hdr / hdr-opt / no-dhdr10-opt / no-idr-recovery-sei / analysis-reuse-level=5 / scale-factor=0 / refine-intra=0 / refine-inter=0 / refine-mv=0 / refine-ctu-distortion=0 / no-limit-sao / ctu-info=0 / no-lowpass-dct / refine-analysis-type=1285993680 / copy-pic=1 / max-ausize-factor=1.0 / no-dynamic-refine / no-single-sei / no-hevc-aq / no-svt / qp-adaptation-range=1.00
  22. Default : Yes
  23. Forced : No
  24. Color range : Limited
  25. Color primaries : BT.2020
  26. Transfer characteristics : PQ
  27. Matrix coefficients : BT.2020 non-constant
  28. Mastering display color primaries : Display P3
  29. Mastering display luminance : min: 0.0050 cd/m2, max: 1000 cd/m2
  30. Maximum Content Light Level : 933 cd/m2
  31. Maximum Frame-Average Light Level : 84 cd/m2

  32. Audio #1
  33. ID : 2
  34. ID in the original source medium : 4352 (0x1100)
  35. Format : DTS XLL X
  36. Format/Info : Digital Theater Systems
  37. Commercial name : DTS-HD Master Audio
  38. Codec ID : A_DTS
  39. Duration : 2 h 24 min
  40. Bit rate mode : Variable
  41. Bit rate : 3 452 kb/s
  42. Channel(s) : 8 channels
  43. Channel(s)_Original : Object Based
  44. ChannelLayout_Original : Object Based
  45. Sampling rate : 48.0 kHz
  46. Frame rate : 93.750 FPS (512 SPF)
  47. Bit depth : 24 bits
  48. Stream size : 3.47 GiB (8%)
  49. Title : DTS-X 7.1
  50. Language : English
  51. Default : Yes
  52. Forced : No
  53. Original source medium : Blu-ray

  54. Audio #2
  55. ID : 3
  56. Format : AC-3
  57. Format/Info : Audio Coding 3
  58. Commercial name : Dolby Digital
  59. Codec ID : A_AC3
  60. Duration : 2 h 24 min
  61. Bit rate mode : Constant
  62. Bit rate : 640 kb/s
  63. Channel(s) : 6 channels
  64. Channel layout : L R C LFE Ls Rs
  65. Sampling rate : 48.0 kHz
  66. Frame rate : 31.250 FPS (1536 SPF)
  67. Compression mode : Lossy
  68. Stream size : 659 MiB (1%)
  69. Title : DD 5.1
  70. Language : English
  71. Service kind : Complete Main
  72. Default : No
  73. Forced : No

  74. Text #1
  75. ID : 4
  76. Format : UTF-8
  77. Codec ID : S_TEXT/UTF8
  78. Codec ID/Info : UTF-8 Plain Text
  79. Duration : 2 h 15 min
  80. Bit rate : 60 b/s
  81. Count of elements : 1546
  82. Stream size : 59.8 KiB (0%)
  83. Title : SRT
  84. Language : English
  85. Default : Yes
  86. Forced : No

  87. Text #2
  88. ID : 5
  89. ID in the original source medium : 4768 (0x12A0)
  90. Format : PGS
  91. Muxing mode : zlib
  92. Codec ID : S_HDMV/PGS
  93. Codec ID/Info : Picture based subtitle format used on BDs/HD-DVDs
  94. Duration : 2 h 18 min
  95. Bit rate : 38.2 kb/s
  96. Count of elements : 3224
  97. Stream size : 37.8 MiB (0%)
  98. Language : English
  99. Default : No
  100. Forced : No
  101. Original source medium : Blu-ray

  102. Text #3
  103. ID : 6
  104. ID in the original source medium : 4769 (0x12A1)
  105. Format : PGS
  106. Muxing mode : zlib
  107. Codec ID : S_HDMV/PGS
  108. Codec ID/Info : Picture based subtitle format used on BDs/HD-DVDs
  109. Duration : 2 h 15 min
  110. Bit rate : 25.2 kb/s
  111. Count of elements : 3164
  112. Stream size : 24.4 MiB (0%)
  113. Language : Japanese
  114. Default : No
  115. Forced : No
  116. Original source medium : Blu-ray

  117. Text #4
  118. ID : 7
  119. ID in the original source medium : 4770 (0x12A2)
  120. Format : PGS
  121. Muxing mode : zlib
  122. Codec ID : S_HDMV/PGS
  123. Codec ID/Info : Picture based subtitle format used on BDs/HD-DVDs
  124. Duration : 2 h 20 min
  125. Bit rate : 34.2 kb/s
  126. Count of elements : 3122
  127. Stream size : 34.3 MiB (0%)
  128. Language : French
  129. Default : No
  130. Forced : No
  131. Original source medium : Blu-ray

  132. Text #5
  133. ID : 8
  134. ID in the original source medium : 4771 (0x12A3)
  135. Format : PGS
  136. Muxing mode : zlib
  137. Codec ID : S_HDMV/PGS
  138. Codec ID/Info : Picture based subtitle format used on BDs/HD-DVDs
  139. Duration : 2 h 20 min
  140. Bit rate : 35.4 kb/s
  141. Count of elements : 3108
  142. Stream size : 35.5 MiB (0%)
  143. Language : Spanish
  144. Default : No
  145. Forced : No
  146. Original source medium : Blu-ray

  147. Text #6
  148. ID : 9
  149. ID in the original source medium : 4772 (0x12A4)
  150. Format : PGS
  151. Muxing mode : zlib
  152. Codec ID : S_HDMV/PGS
  153. Codec ID/Info : Picture based subtitle format used on BDs/HD-DVDs
  154. Duration : 2 h 20 min
  155. Bit rate : 36.2 kb/s
  156. Count of elements : 3136
  157. Stream size : 36.3 MiB (0%)
  158. Language : Danish
  159. Default : No
  160. Forced : No
  161. Original source medium : Blu-ray

  162. Text #7
  163. ID : 10
  164. ID in the original source medium : 4773 (0x12A5)
  165. Format : PGS
  166. Muxing mode : zlib
  167. Codec ID : S_HDMV/PGS
  168. Codec ID/Info : Picture based subtitle format used on BDs/HD-DVDs
  169. Duration : 2 h 20 min
  170. Bit rate : 31.3 kb/s
  171. Count of elements : 3046
  172. Stream size : 31.4 MiB (0%)
  173. Language : Finnish
  174. Default : No
  175. Forced : No
  176. Original source medium : Blu-ray

  177. Text #8
  178. ID : 11
  179. ID in the original source medium : 4774 (0x12A6)
  180. Format : PGS
  181. Muxing mode : zlib
  182. Codec ID : S_HDMV/PGS
  183. Codec ID/Info : Picture based subtitle format used on BDs/HD-DVDs
  184. Duration : 2 h 20 min
  185. Bit rate : 33.9 kb/s
  186. Count of elements : 3112
  187. Stream size : 34.0 MiB (0%)
  188. Language : Norwegian
  189. Default : No
  190. Forced : No
  191. Original source medium : Blu-ray

  192. Text #9
  193. ID : 12
  194. ID in the original source medium : 4775 (0x12A7)
  195. Format : PGS
  196. Muxing mode : zlib
  197. Codec ID : S_HDMV/PGS
  198. Codec ID/Info : Picture based subtitle format used on BDs/HD-DVDs
  199. Duration : 2 h 20 min
  200. Bit rate : 28.8 kb/s
  201. Count of elements : 3038
  202. Stream size : 28.9 MiB (0%)
  203. Language : Swedish
  204. Default : No
  205. Forced : No
  206. Original source medium : Blu-ray

  207. Text #10
  208. ID : 13
  209. ID in the original source medium : 4776 (0x12A8)
  210. Format : PGS
  211. Muxing mode : zlib
  212. Codec ID : S_HDMV/PGS
  213. Codec ID/Info : Picture based subtitle format used on BDs/HD-DVDs
  214. Duration : 2 h 20 min
  215. Bit rate : 31.0 kb/s
  216. Count of elements : 3552
  217. Stream size : 31.1 MiB (0%)
  218. Language : Thai
  219. Default : No
  220. Forced : No
  221. Original source medium : Blu-ray

  222. Text #11
  223. ID : 14
  224. ID in the original source medium : 4777 (0x12A9)
  225. Format : PGS
  226. Muxing mode : zlib
  227. Codec ID : S_HDMV/PGS
  228. Codec ID/Info : Picture based subtitle format used on BDs/HD-DVDs
  229. Duration : 2 h 20 min
  230. Bit rate : 26.7 kb/s
  231. Count of elements : 3134
  232. Stream size : 26.8 MiB (0%)
  233. Language : Chinese
  234. Default : No
  235. Forced : No
  236. Original source medium : Blu-ray

  237. Text #12
  238. ID : 15
  239. ID in the original source medium : 4778 (0x12AA)
  240. Format : PGS
  241. Muxing mode : zlib
  242. Codec ID : S_HDMV/PGS
  243. Codec ID/Info : Picture based subtitle format used on BDs/HD-DVDs
  244. Duration : 2 h 20 min
  245. Bit rate : 24.9 kb/s
  246. Count of elements : 3052
  247. Stream size : 24.9 MiB (0%)
  248. Language : Chinese
  249. Default : No
  250. Forced : No
  251. Original source medium : Blu-ray

  252. Text #13
  253. ID : 16
  254. ID in the original source medium : 4779 (0x12AB)
  255. Format : PGS
  256. Muxing mode : zlib
  257. Codec ID : S_HDMV/PGS
  258. Codec ID/Info : Picture based subtitle format used on BDs/HD-DVDs
  259. Duration : 2 h 22 min
  260. Bit rate : 19.7 kb/s
  261. Count of elements : 3214
  262. Stream size : 20.1 MiB (0%)
  263. Language : Korean
  264. Default : No
  265. Forced : No
  266. Original source medium : Blu-ray

  267. Menu
  268. 00:00:00.000 : Chapter 01
  269. 00:05:03.469 : Chapter 02
  270. 00:17:43.312 : Chapter 03
  271. 00:27:41.409 : Chapter 04
  272. 00:32:02.587 : Chapter 05
  273. 00:36:36.527 : Chapter 06
  274. 00:45:26.557 : Chapter 07
  275. 00:50:38.618 : Chapter 08
  276. 00:58:40.517 : Chapter 09
  277. 01:03:34.143 : Chapter 10
  278. 01:11:44.258 : Chapter 11
  279. 01:17:28.101 : Chapter 12
  280. 01:24:46.915 : Chapter 13
  281. 01:33:48.748 : Chapter 14
  282. 01:45:23.025 : Chapter 15
  283. 01:52:32.245 : Chapter 16
  284. 01:57:40.470 : Chapter 17
  285. 02:03:30.986 : Chapter 18
  286. 02:14:01.366 : Chapter 19
  287. 02:19:06.963 : Chapter 20
复制代码









                                       
                                       

                                       
                                       
                                       




回复

使用道具 举报

蓝光币
245
发表于 6 天前 | 显示全部楼层
谢谢分享!!
回复

使用道具 举报

蓝光币
167
发表于 6 天前 | 显示全部楼层
感谢分享
回复

使用道具 举报

蓝光币
14
发表于 6 天前 | 显示全部楼层
HDR和SDR区别大吗?
回复 支持 反对

使用道具 举报

蓝光币
25
发表于 5 天前 | 显示全部楼层
谢谢蓝光电影网 好片子
回复 支持 反对

使用道具 举报

蓝光币
1
发表于 4 天前 | 显示全部楼层
楼主发贴辛苦了,谢谢楼主分享!我觉得蓝光电影网是注册对了!
回复 支持 反对

使用道具 举报

蓝光币
1
发表于 4 天前 | 显示全部楼层

楼主太厉害了!楼主,电影应该很好看我觉得蓝光电影网真是个好地方!
回复 支持 反对

使用道具 举报

懒得打字嘛,点击右侧快捷回复 【右侧内容,后台自定义】
您需要登录后才可以回帖 登录 | 立即加入

本版积分规则

Archiver|小黑屋| 蓝光电影网 |网站地图

Copyright © 2021 Comsenz Inc. Powered by 蓝光电影网

蓝光电影网

本站内容由用户自主分享和转载自互联网,转载目的在于传递更多信息,并不代表本网赞同其观点和对其真实性负责。

如有侵权、违反国家法律政策行为,请联系我们,我们会第一时间及时清除和处理!

举报反馈邮箱:[email protected]

快速回复 返回顶部 返回列表