找回密码

蓝光电影网

查看: 86|回复: 4

[REMUX.HEVC] 危情十日/头号书迷 Misery.1990.2160p.BluRay.REMUX.HEVC.DTS-HD.MA.5.1-FGT 80.20GB

[复制链接]
蓝光币
511
发表于 6 天前 | 显示全部楼层 |阅读模式


◎译  名 危情十日/头号书迷/战栗游戏/米塞莉/米泽丽/磨难
◎片  名 Misery
◎年  代 1990
◎产  地 美国
◎类  别 剧情 / 惊悚 / 犯罪
◎语  言 英语
◎上映日期 1990-11-30
◎豆瓣评分 8.4/10 from 59032 users
◎豆瓣链接 https://movie.douban.com/subject/1292850/
◎片  长 107 分钟
◎导  演 罗伯·莱纳 Rob Reiner
◎编  剧 威廉姆·高德曼 William Goldman / 斯蒂芬·金 Stephen King
◎主  演 詹姆斯·肯恩 James Caan
       凯西·贝茨 Kathy Bates
       理查德·法恩斯沃斯 Richard Farnsworth
       弗朗西斯·斯特恩哈根  Frances Sternhagen
       J·T·沃尔什 J.T. Walsh
       格雷厄姆·贾维斯 Graham Jarvis
       劳伦·白考尔 Lauren Bacall
◎标  签 惊悚 | 斯蒂芬·金 | 悬疑 | 美国 | 可骇 | 犯罪 | 1990 | 美国电影
◎简  介


  畅销书作家保罗?谢尔顿(詹姆斯?凯恩 James Caan 饰)带着他的最新作品《米瑟莉》驱车走在回家的路上。途中他遭受了可怕的狂风雪,轿车发生侧翻变乱,保罗的双腿严重受伤,幸亏被独居在四周山顶的护士安妮?威尔克斯(凯西?贝茨 Kathy Bates 饰)实时相救。安妮是保罗的头号书迷,在她的悉心照顾下,保罗的伤势日渐好转。但当她得悉爱好的女仆人公在保罗的新书中已经灭亡,却难以停止心中的怒火,经过各类手段向保罗施加报复,逐步将作家逼向了失望……
  
  影片按照可骇小说大师斯蒂芬?金的同名小说改编,女配角凯西?贝茨凭仗此片中的疯狂又频频无常的表演,成功斩获了第63届奥斯卡的最好女演员奖。
◎获奖情况
  第63届奥斯卡金像奖 ?(1991)
  最好女配角 凯西·贝茨
  1. Video
  2. ID                                       : 1
  3. ID in the original source medium         : 4113 (0x1011)
  4. Format                                   : HEVC
  5. Format/Info                              : High Efficiency Video Coding
  6. Format profile                           : Main [email protected]@High
  7. HDR format                               : Dolby Vision, Version 1.0, dvhe.07.06, BL+EL+RPU, Blu-ray compatible / SMPTE ST 2086, HDR10 compatible
  8. Codec ID                                 : V_MPEGH/ISO/HEVC
  9. Duration                                 : 1 h 47 min
  10. Bit rate                                 : 100 Mb/s
  11. Width                                    : 3 840 pixels
  12. Height                                   : 2 160 pixels
  13. Display aspect ratio                     : 16:9
  14. Frame rate mode                          : Constant
  15. Frame rate                               : 23.976 (24000/1001/189150) FPS
  16. Color space                              : YUV
  17. Chroma subsampling                       : 4:2:0 (Type 2)
  18. Bit depth                                : 10 bits
  19. Bits/(Pixel*Frame)                       : 0.504
  20. Stream size                              : 75.2 GiB (94%)
  21. Language                                 : English
  22. Default                                  : No
  23. Forced                                   : No
  24. Color range                              : Limited
  25. Color primaries                          : BT.2020
  26. Transfer characteristics                 : PQ
  27. Matrix coefficients                      : BT.2020 non-constant
  28. Mastering display color primaries        : Display P3
  29. Mastering display luminance              : min: 0.0050 cd/m2, max: 4000 cd/m2
  30. Maximum Content Light Level              : 7130 cd/m2
  31. Maximum Frame-Average Light Level        : 545 cd/m2
  32. Original source medium                   : Blu-ray

  33. Audio #1
  34. ID                                       : 2
  35. ID in the original source medium         : 4352 (0x1100)
  36. Format                                   : DTS XLL
  37. Format/Info                              : Digital Theater Systems
  38. Commercial name                          : DTS-HD Master Audio
  39. Codec ID                                 : A_DTS
  40. Duration                                 : 1 h 47 min
  41. Bit rate mode                            : Variable
  42. Bit rate                                 : 3 647 kb/s
  43. Channel(s)                               : 6 channels
  44. Channel layout                           : C L R Ls Rs LFE
  45. Sampling rate                            : 48.0 kHz
  46. Frame rate                               : 93.750 FPS (512 SPF)
  47. Bit depth                                : 24 bits
  48. Compression mode                         : Lossless
  49. Stream size                              : 2.74 GiB (3%)
  50. Title                                    : DTS-HD MA 5.1
  51. Language                                 : English
  52. Default                                  : Yes
  53. Forced                                   : No
  54. Original source medium                   : Blu-ray

  55. Audio #2
  56. ID                                       : 3
  57. Format                                   : AC-3
  58. Format/Info                              : Audio Coding 3
  59. Commercial name                          : Dolby Digital
  60. Codec ID                                 : A_AC3
  61. Duration                                 : 1 h 47 min
  62. Bit rate mode                            : Constant
  63. Bit rate                                 : 640 kb/s
  64. Channel(s)                               : 6 channels
  65. Channel layout                           : L R C LFE Ls Rs
  66. Sampling rate                            : 48.0 kHz
  67. Frame rate                               : 31.250 FPS (1536 SPF)
  68. Compression mode                         : Lossy
  69. Stream size                              : 492 MiB (1%)
  70. Title                                    : DD 5.1
  71. Language                                 : English
  72. Service kind                             : Complete Main
  73. Default                                  : No
  74. Forced                                   : No

  75. Audio #3
  76. ID                                       : 4
  77. ID in the original source medium         : 4353 (0x1101)
  78. Format                                   : DTS XLL
  79. Format/Info                              : Digital Theater Systems
  80. Commercial name                          : DTS-HD Master Audio
  81. Codec ID                                 : A_DTS
  82. Duration                                 : 1 h 47 min
  83. Bit rate mode                            : Variable
  84. Bit rate                                 : 1 985 kb/s
  85. Channel(s)                               : 2 channels
  86. Channel layout                           : L R
  87. Sampling rate                            : 48.0 kHz
  88. Frame rate                               : 93.750 FPS (512 SPF)
  89. Bit depth                                : 24 bits
  90. Compression mode                         : Lossless
  91. Stream size                              : 1.49 GiB (2%)
  92. Title                                    : DTS-HD MA 2.0
  93. Language                                 : English
  94. Default                                  : No
  95. Forced                                   : No
  96. Original source medium                   : Blu-ray

  97. Audio #4
  98. ID                                       : 5
  99. ID in the original source medium         : 4354 (0x1102)
  100. Format                                   : AC-3
  101. Format/Info                              : Audio Coding 3
  102. Commercial name                          : Dolby Digital
  103. Codec ID                                 : A_AC3
  104. Duration                                 : 1 h 47 min
  105. Bit rate mode                            : Constant
  106. Bit rate                                 : 192 kb/s
  107. Channel(s)                               : 2 channels
  108. Channel layout                           : L R
  109. Sampling rate                            : 48.0 kHz
  110. Frame rate                               : 31.250 FPS (1536 SPF)
  111. Compression mode                         : Lossy
  112. Stream size                              : 148 MiB (0%)
  113. Title                                    : DD 2.0
  114. Language                                 : English
  115. Service kind                             : Complete Main
  116. Default                                  : No
  117. Forced                                   : No
  118. Original source medium                   : Blu-ray

  119. Audio #5
  120. ID                                       : 6
  121. ID in the original source medium         : 4355 (0x1103)
  122. Format                                   : AC-3
  123. Format/Info                              : Audio Coding 3
  124. Commercial name                          : Dolby Digital
  125. Codec ID                                 : A_AC3
  126. Duration                                 : 1 h 47 min
  127. Bit rate mode                            : Constant
  128. Bit rate                                 : 192 kb/s
  129. Channel(s)                               : 2 channels
  130. Channel layout                           : L R
  131. Sampling rate                            : 48.0 kHz
  132. Frame rate                               : 31.250 FPS (1536 SPF)
  133. Compression mode                         : Lossy
  134. Stream size                              : 148 MiB (0%)
  135. Title                                    : DD 2.0
  136. Language                                 : English
  137. Service kind                             : Complete Main
  138. Default                                  : No
  139. Forced                                   : No
  140. Original source medium                   : Blu-ray

  141. Text #1
  142. ID                                       : 7
  143. Format                                   : UTF-8
  144. Codec ID                                 : S_TEXT/UTF8
  145. Codec ID/Info                            : UTF-8 Plain Text
  146. Duration                                 : 1 h 42 min
  147. Bit rate                                 : 43 b/s
  148. Count of elements                        : 966
  149. Stream size                              : 32.6 KiB (0%)
  150. Title                                    : SRT
  151. Language                                 : English
  152. Default                                  : Yes
  153. Forced                                   : No

  154. Text #2
  155. ID                                       : 8
  156. ID in the original source medium         : 4768 (0x12A0)
  157. Format                                   : PGS
  158. Muxing mode                              : zlib
  159. Codec ID                                 : S_HDMV/PGS
  160. Codec ID/Info                            : Picture based subtitle format used on BDs/HD-DVDs
  161. Duration                                 : 1 h 42 min
  162. Bit rate                                 : 23.8 kb/s
  163. Count of elements                        : 1940
  164. Stream size                              : 17.4 MiB (0%)
  165. Language                                 : English
  166. Default                                  : No
  167. Forced                                   : No
  168. Original source medium                   : Blu-ray

  169. Menu
  170. 00:00:00.000                             : Chapter 01
  171. 00:07:00.420                             : Chapter 02
  172. 00:15:46.946                             : Chapter 03
  173. 00:21:47.306                             : Chapter 04
  174. 00:27:52.671                             : Chapter 05
  175. 00:32:55.974                             : Chapter 06
  176. 00:41:27.485                             : Chapter 07
  177. 00:46:19.777                             : Chapter 08
  178. 00:57:20.437                             : Chapter 09
  179. 01:02:58.775                             : Chapter 10
  180. 01:09:45.181                             : Chapter 11
  181. 01:17:27.643                             : Chapter 12
  182. 01:25:30.125                             : Chapter 13
  183. 01:36:10.765                             : Chapter 14
  184. 01:42:31.145                             : Chapter 15
  185. 01:47:23.437                             : Chapter 16
复制代码




                                       
                                       

                                       
                                       
                                       




回复

使用道具 举报

蓝光币
11
发表于 6 天前 | 显示全部楼层
楼主发贴辛苦了,谢谢楼主分享!我觉得蓝光电影网是注册对了!
回复 支持 反对

使用道具 举报

蓝光币
6
发表于 6 天前 | 显示全部楼层
楼主发贴辛苦了,谢谢楼主分享!我觉得蓝光电影网是注册对了!
回复 支持 反对

使用道具 举报

蓝光币
92
发表于 5 天前 | 显示全部楼层

楼主太厉害了!楼主,电影应该很好看我觉得蓝光电影网真是个好地方!
回复 支持 反对

使用道具 举报

蓝光币
171
发表于 前天 07:19 | 显示全部楼层

楼主太厉害了!楼主,电影应该很好看我觉得蓝光电影网真是个好地方!
回复 支持 反对

使用道具 举报

懒得打字嘛,点击右侧快捷回复 【右侧内容,后台自定义】
您需要登录后才可以回帖 登录 | 立即加入

本版积分规则

Archiver|小黑屋| 蓝光电影网 |网站地图

Copyright © 2021 Comsenz Inc. Powered by 蓝光电影网

蓝光电影网

本站内容由用户自主分享和转载自互联网,转载目的在于传递更多信息,并不代表本网赞同其观点和对其真实性负责。

如有侵权、违反国家法律政策行为,请联系我们,我们会第一时间及时清除和处理!

举报反馈邮箱:[email protected]

快速回复 返回顶部 返回列表