找回密码

蓝光电影网

查看: 167|回复: 3

[8bit.SDR] 危情十日/头号书迷 Misery.1990.2160p.BluRay.x264.8bit.SDR.DTS-HD.MA.5.1-SWTYBLZ 67.93GB

[复制链接]
蓝光币
511
发表于 5 天前 | 显示全部楼层 |阅读模式


◎译  名 危情十日/头号书迷/战栗游戏/米塞莉/米泽丽/磨难
◎片  名 Misery
◎年  代 1990
◎产  地 美国
◎类  别 剧情 / 惊悚 / 犯罪
◎语  言 英语
◎上映日期 1990-11-30
◎豆瓣评分 8.4/10 from 59072 users
◎豆瓣链接 https://movie.douban.com/subject/1292850/
◎片  长 107 分钟
◎导  演 罗伯·莱纳 Rob Reiner
◎编  剧 威廉姆·高德曼 William Goldman / 斯蒂芬·金 Stephen King
◎主  演 詹姆斯·肯恩 James Caan
       凯西·贝茨 Kathy Bates
       理查德·法恩斯沃斯 Richard Farnsworth
       弗朗西斯·斯特恩哈根  Frances Sternhagen
       J·T·沃尔什 J.T. Walsh
       格雷厄姆·贾维斯 Graham Jarvis
       劳伦·白考尔 Lauren Bacall
◎标  签 惊悚 | 斯蒂芬·金 | 悬疑 | 美国 | 可骇 | 犯罪 | 1990 | 美国电影
◎简  介


  畅销书作家保罗?谢尔顿(詹姆斯?凯恩 James Caan 饰)带着他的最新作品《米瑟莉》驱车走在回家的路上。途中他遭受了可怕的狂风雪,轿车发生侧翻变乱,保罗的双腿严重受伤,幸亏被独居在四周山顶的护士安妮?威尔克斯(凯西?贝茨 Kathy Bates 饰)实时相救。安妮是保罗的头号书迷,在她的悉心照顾下,保罗的伤势日渐好转。但当她得悉爱好的女仆人公在保罗的新书中已经灭亡,却难以停止心中的怒火,经过各类手段向保罗施加报复,逐步将作家逼向了失望……
  
  影片按照可骇小说大师斯蒂芬?金的同名小说改编,女配角凯西?贝茨凭仗此片中的疯狂又频频无常的表演,成功斩获了第63届奥斯卡的最好女演员奖。
◎获奖情况
  第63届奥斯卡金像奖 ?(1991)
  最好女配角 凯西·贝茨
  1. Video
  2. ID                                       : 1
  3. Format                                   : AVC
  4. Format/Info                              : Advanced Video Codec
  5. Format profile                           : [email protected]
  6. Format settings                          : CABAC / 5 Ref Frames
  7. Format settings, CABAC                   : Yes
  8. Format settings, Reference frames        : 5 frames
  9. Codec ID                                 : V_MPEG4/ISO/AVC
  10. Duration                                 : 1 h 47 min
  11. Bit rate                                 : 85.8 Mb/s
  12. Width                                    : 3 840 pixels
  13. Height                                   : 2 076 pixels
  14. Display aspect ratio                     : 1.85:1
  15. Frame rate mode                          : Constant
  16. Frame rate                               : 23.976 (24000/1001/189150) FPS
  17. Color space                              : YUV
  18. Chroma subsampling                       : 4:2:0
  19. Bit depth                                : 8 bits
  20. Scan type                                : Progressive
  21. Bits/(Pixel*Frame)                       : 0.449
  22. Stream size                              : 64.4 GiB (95%)
  23. Writing library                          : x264 core 157 r2935 545de2f
  24. Encoding settings                        : cabac=1 / ref=5 / deblock=1:-1:-1 / analyse=0x3:0x113 / me=umh / subme=10 / psy=1 / psy_rd=1.00:0.15 / mixed_ref=1 / me_range=48 / chroma_me=1 / trellis=2 / 8x8dct=1 / cqm=0 / deadzone=21,11 / fast_pskip=1 / chroma_qp_offset=-3 / threads=48 / lookahead_threads=4 / sliced_threads=0 / nr=0 / decimate=0 / interlaced=0 / bluray_compat=0 / constrained_intra=0 / bframes=3 / b_pyramid=2 / b_adapt=2 / b_bias=0 / direct=3 / weightb=1 / open_gop=0 / weightp=2 / keyint=250 / keyint_min=23 / scenecut=40 / intra_refresh=0 / rc_lookahead=50 / rc=crf / mbtree=1 / crf=19.0 / qcomp=0.60 / qpmin=0 / qpmax=69 / qpstep=4 / ip_ratio=1.40 / aq=1:1.00
  25. Default                                  : Yes
  26. Forced                                   : No

  27. Audio #1
  28. ID                                       : 2
  29. ID in the original source medium         : 4352 (0x1100)
  30. Format                                   : DTS XLL
  31. Format/Info                              : Digital Theater Systems
  32. Commercial name                          : DTS-HD Master Audio
  33. Codec ID                                 : A_DTS
  34. Duration                                 : 1 h 47 min
  35. Bit rate mode                            : Variable
  36. Bit rate                                 : 3 647 kb/s
  37. Channel(s)                               : 6 channels
  38. Channel layout                           : C L R Ls Rs LFE
  39. Sampling rate                            : 48.0 kHz
  40. Frame rate                               : 93.750 FPS (512 SPF)
  41. Bit depth                                : 24 bits
  42. Compression mode                         : Lossless
  43. Stream size                              : 2.74 GiB (4%)
  44. Title                                    : DTS-HD MA 5.1
  45. Language                                 : English
  46. Default                                  : Yes
  47. Forced                                   : No
  48. Original source medium                   : Blu-ray

  49. Audio #2
  50. ID                                       : 3
  51. Format                                   : AC-3
  52. Format/Info                              : Audio Coding 3
  53. Commercial name                          : Dolby Digital
  54. Codec ID                                 : A_AC3
  55. Duration                                 : 1 h 47 min
  56. Bit rate mode                            : Constant
  57. Bit rate                                 : 640 kb/s
  58. Channel(s)                               : 6 channels
  59. Channel layout                           : L R C LFE Ls Rs
  60. Sampling rate                            : 48.0 kHz
  61. Frame rate                               : 31.250 FPS (1536 SPF)
  62. Compression mode                         : Lossy
  63. Stream size                              : 492 MiB (1%)
  64. Title                                    : DD 5.1
  65. Language                                 : English
  66. Service kind                             : Complete Main
  67. Default                                  : No
  68. Forced                                   : No

  69. Text #1
  70. ID                                       : 4
  71. Format                                   : UTF-8
  72. Codec ID                                 : S_TEXT/UTF8
  73. Codec ID/Info                            : UTF-8 Plain Text
  74. Duration                                 : 1 h 42 min
  75. Bit rate                                 : 43 b/s
  76. Count of elements                        : 966
  77. Stream size                              : 32.6 KiB (0%)
  78. Title                                    : SRT
  79. Language                                 : English
  80. Default                                  : Yes
  81. Forced                                   : No

  82. Text #2
  83. ID                                       : 5
  84. ID in the original source medium         : 4768 (0x12A0)
  85. Format                                   : PGS
  86. Muxing mode                              : zlib
  87. Codec ID                                 : S_HDMV/PGS
  88. Codec ID/Info                            : Picture based subtitle format used on BDs/HD-DVDs
  89. Duration                                 : 1 h 42 min
  90. Bit rate                                 : 23.8 kb/s
  91. Count of elements                        : 1940
  92. Stream size                              : 17.4 MiB (0%)
  93. Language                                 : English
  94. Default                                  : No
  95. Forced                                   : No
  96. Original source medium                   : Blu-ray

  97. Menu
  98. 00:00:00.000                             : Chapter 01
  99. 00:07:00.420                             : Chapter 02
  100. 00:15:46.946                             : Chapter 03
  101. 00:21:47.306                             : Chapter 04
  102. 00:27:52.671                             : Chapter 05
  103. 00:32:55.974                             : Chapter 06
  104. 00:41:27.485                             : Chapter 07
  105. 00:46:19.777                             : Chapter 08
  106. 00:57:20.437                             : Chapter 09
  107. 01:02:58.775                             : Chapter 10
  108. 01:09:45.181                             : Chapter 11
  109. 01:17:27.643                             : Chapter 12
  110. 01:25:30.125                             : Chapter 13
  111. 01:36:10.765                             : Chapter 14
  112. 01:42:31.145                             : Chapter 15
  113. 01:47:23.437                             : Chapter 16
复制代码





                                       
                                       

                                       
                                       
                                       




回复

使用道具 举报

蓝光币
3
发表于 5 天前 | 显示全部楼层
感谢分享
回复

使用道具 举报

蓝光币
0
发表于 5 天前 | 显示全部楼层
明日边缘
回复

使用道具 举报

蓝光币
11
发表于 5 天前 | 显示全部楼层
芜湖起飞
回复

使用道具 举报

懒得打字嘛,点击右侧快捷回复 【右侧内容,后台自定义】
您需要登录后才可以回帖 登录 | 立即加入

本版积分规则

Archiver|小黑屋| 蓝光电影网 |网站地图

Copyright © 2021 Comsenz Inc. Powered by 蓝光电影网

蓝光电影网

本站内容由用户自主分享和转载自互联网,转载目的在于传递更多信息,并不代表本网赞同其观点和对其真实性负责。

如有侵权、违反国家法律政策行为,请联系我们,我们会第一时间及时清除和处理!

举报反馈邮箱:[email protected]

快速回复 返回顶部 返回列表