找回密码

蓝光电影网

查看: 119|回复: 0

[10bit.SDR] 危情十日/头号书迷 Misery.1990.2160p.BluRay.x265.10bit.SDR.DTS-HD.MA.5.1-SWTYBLZ 56.08GB

[复制链接]
蓝光币
511
发表于 5 天前 | 显示全部楼层 |阅读模式


◎译  名 危情十日/头号书迷/战栗游戏/米塞莉/米泽丽/磨难
◎片  名 Misery
◎年  代 1990
◎产  地 美国
◎类  别 剧情 / 惊悚 / 犯罪
◎语  言 英语
◎上映日期 1990-11-30
◎豆瓣评分 8.4/10 from 59072 users
◎豆瓣链接 https://movie.douban.com/subject/1292850/
◎片  长 107 分钟
◎导  演 罗伯·莱纳 Rob Reiner
◎编  剧 威廉姆·高德曼 William Goldman / 斯蒂芬·金 Stephen King
◎主  演 詹姆斯·肯恩 James Caan
       凯西·贝茨 Kathy Bates
       理查德·法恩斯沃斯 Richard Farnsworth
       弗朗西斯·斯特恩哈根  Frances Sternhagen
       J·T·沃尔什 J.T. Walsh
       格雷厄姆·贾维斯 Graham Jarvis
       劳伦·白考尔 Lauren Bacall
◎标  签 惊悚 | 斯蒂芬·金 | 悬疑 | 美国 | 可骇 | 犯罪 | 1990 | 美国电影
◎简  介


  畅销书作家保罗?谢尔顿(詹姆斯?凯恩 James Caan 饰)带着他的最新作品《米瑟莉》驱车走在回家的路上。途中他遭受了可怕的狂风雪,轿车发生侧翻变乱,保罗的双腿严重受伤,幸亏被独居在四周山顶的护士安妮?威尔克斯(凯西?贝茨 Kathy Bates 饰)实时相救。安妮是保罗的头号书迷,在她的悉心照顾下,保罗的伤势日渐好转。但当她得悉爱好的女仆人公在保罗的新书中已经灭亡,却难以停止心中的怒火,经过各类手段向保罗施加报复,逐步将作家逼向了失望……
  
  影片按照可骇小说大师斯蒂芬?金的同名小说改编,女配角凯西?贝茨凭仗此片中的疯狂又频频无常的表演,成功斩获了第63届奥斯卡的最好女演员奖。
◎获奖情况
  第63届奥斯卡金像奖 ?(1991)
  最好女配角 凯西·贝茨
  1. Video
  2. ID                                       : 1
  3. Format                                   : HEVC
  4. Format/Info                              : High Efficiency Video Coding
  5. Format profile                           : Main [email protected]@High
  6. Codec ID                                 : V_MPEGH/ISO/HEVC
  7. Duration                                 : 1 h 47 min
  8. Bit rate                                 : 70.1 Mb/s
  9. Width                                    : 3 840 pixels
  10. Height                                   : 2 076 pixels
  11. Display aspect ratio                     : 1.85:1
  12. Frame rate mode                          : Constant
  13. Frame rate                               : 23.976 (24000/1001/189150) FPS
  14. Color space                              : YUV
  15. Chroma subsampling                       : 4:2:0
  16. Bit depth                                : 10 bits
  17. Bits/(Pixel*Frame)                       : 0.367
  18. Stream size                              : 52.6 GiB (94%)
  19. Writing library                          : x265 3.0ed72af837053:[Windows][GCC 8.2.0][64 bit] 10bit
  20. Encoding settings                        : cpuid=1111039 / frame-threads=6 / numa-pools=40 / wpp / no-pmode / no-pme / no-psnr / no-ssim / log-level=2 / input-csp=1 / input-res=3840x2076 / interlace=0 / total-frames=154512 / level-idc=51 / high-tier=1 / uhd-bd=0 / ref=3 / no-allow-non-conformance / repeat-headers / annexb / aud / hrd / info / hash=0 / no-temporal-layers / no-open-gop / min-keyint=1 / keyint=24 / gop-lookahead=0 / bframes=4 / b-adapt=2 / b-pyramid / bframe-bias=0 / rc-lookahead=25 / lookahead-slices=4 / scenecut=40 / radl=0 / no-splice / no-intra-refresh / ctu=64 / min-cu-size=8 / no-rect / no-amp / max-tu-size=32 / tu-inter-depth=1 / tu-intra-depth=1 / limit-tu=0 / rdoq-level=0 / dynamic-rd=0.00 / no-ssim-rd / signhide / no-tskip / nr-intra=0 / nr-inter=0 / no-constrained-intra / strong-intra-smoothing / max-merge=2 / limit-refs=3 / no-limit-modes / me=1 / subme=2 / merange=57 / temporal-mvp / weightp / no-weightb / no-analyze-src-pics / deblock=0:0 / no-sao / no-sao-non-deblock / rd=3 / no-early-skip / rskip / no-fast-intra / no-tskip-fast / no-cu-lossless / no-b-intra / no-splitrd-skip / rdpenalty=0 / psy-rd=2.00 / psy-rdoq=0.00 / no-rd-refine / no-lossless / cbqpoffs=0 / crqpoffs=0 / rc=crf / crf=17.0 / qcomp=0.60 / qpstep=4 / stats-write=0 / stats-read=0 / vbv-maxrate=160000 / vbv-bufsize=160000 / vbv-init=0.9 / crf-max=0.0 / crf-min=0.0 / ipratio=1.40 / pbratio=1.30 / aq-mode=1 / aq-strength=1.00 / cutree / zone-count=0 / no-strict-cbr / qg-size=32 / no-rc-grain / qpmax=69 / qpmin=0 / no-const-vbv / sar=1 / overscan=0 / videoformat=5 / range=0 / colorprim=2 / transfer=2 / colormatrix=2 / chromaloc=0 / display-window=0 / max-cll=0,0 / min-luma=0 / max-luma=1023 / log2-max-poc-lsb=8 / vui-timing-info / vui-hrd-info / slices=1 / opt-qp-pps / opt-ref-list-length-pps / no-multi-pass-opt-rps / scenecut-bias=0.05 / no-opt-cu-delta-qp / no-aq-motion / no-hdr / no-hdr-opt / no-dhdr10-opt / no-idr-recovery-sei / analysis-reuse-level=5 / scale-factor=0 / refine-intra=0 / refine-inter=0 / refine-mv=0 / refine-ctu-distortion=0 / no-limit-sao / ctu-info=0 / no-lowpass-dct / refine-analysis-type=0 / copy-pic=1 / max-ausize-factor=1.0 / no-dynamic-refine / no-single-sei / no-hevc-aq / qp-adaptation-range=1.00
  21. Default                                  : Yes
  22. Forced                                   : No

  23. Audio #1
  24. ID                                       : 2
  25. ID in the original source medium         : 4352 (0x1100)
  26. Format                                   : DTS XLL
  27. Format/Info                              : Digital Theater Systems
  28. Commercial name                          : DTS-HD Master Audio
  29. Codec ID                                 : A_DTS
  30. Duration                                 : 1 h 47 min
  31. Bit rate mode                            : Variable
  32. Bit rate                                 : 3 647 kb/s
  33. Channel(s)                               : 6 channels
  34. Channel layout                           : C L R Ls Rs LFE
  35. Sampling rate                            : 48.0 kHz
  36. Frame rate                               : 93.750 FPS (512 SPF)
  37. Bit depth                                : 24 bits
  38. Compression mode                         : Lossless
  39. Stream size                              : 2.74 GiB (5%)
  40. Title                                    : DTS-HD MA 5.1
  41. Language                                 : English
  42. Default                                  : Yes
  43. Forced                                   : No
  44. Original source medium                   : Blu-ray

  45. Audio #2
  46. ID                                       : 3
  47. Format                                   : AC-3
  48. Format/Info                              : Audio Coding 3
  49. Commercial name                          : Dolby Digital
  50. Codec ID                                 : A_AC3
  51. Duration                                 : 1 h 47 min
  52. Bit rate mode                            : Constant
  53. Bit rate                                 : 640 kb/s
  54. Channel(s)                               : 6 channels
  55. Channel layout                           : L R C LFE Ls Rs
  56. Sampling rate                            : 48.0 kHz
  57. Frame rate                               : 31.250 FPS (1536 SPF)
  58. Compression mode                         : Lossy
  59. Stream size                              : 492 MiB (1%)
  60. Title                                    : DD 5.1
  61. Language                                 : English
  62. Service kind                             : Complete Main
  63. Default                                  : No
  64. Forced                                   : No

  65. Text #1
  66. ID                                       : 4
  67. Format                                   : UTF-8
  68. Codec ID                                 : S_TEXT/UTF8
  69. Codec ID/Info                            : UTF-8 Plain Text
  70. Duration                                 : 1 h 42 min
  71. Bit rate                                 : 43 b/s
  72. Count of elements                        : 966
  73. Stream size                              : 32.6 KiB (0%)
  74. Title                                    : SRT
  75. Language                                 : English
  76. Default                                  : Yes
  77. Forced                                   : No

  78. Text #2
  79. ID                                       : 5
  80. ID in the original source medium         : 4768 (0x12A0)
  81. Format                                   : PGS
  82. Muxing mode                              : zlib
  83. Codec ID                                 : S_HDMV/PGS
  84. Codec ID/Info                            : Picture based subtitle format used on BDs/HD-DVDs
  85. Duration                                 : 1 h 42 min
  86. Bit rate                                 : 23.8 kb/s
  87. Count of elements                        : 1940
  88. Stream size                              : 17.4 MiB (0%)
  89. Language                                 : English
  90. Default                                  : No
  91. Forced                                   : No
  92. Original source medium                   : Blu-ray

  93. Menu
  94. 00:00:00.000                             : Chapter 01
  95. 00:07:00.420                             : Chapter 02
  96. 00:15:46.946                             : Chapter 03
  97. 00:21:47.306                             : Chapter 04
  98. 00:27:52.671                             : Chapter 05
  99. 00:32:55.974                             : Chapter 06
  100. 00:41:27.485                             : Chapter 07
  101. 00:46:19.777                             : Chapter 08
  102. 00:57:20.437                             : Chapter 09
  103. 01:02:58.775                             : Chapter 10
  104. 01:09:45.181                             : Chapter 11
  105. 01:17:27.643                             : Chapter 12
  106. 01:25:30.125                             : Chapter 13
  107. 01:36:10.765                             : Chapter 14
  108. 01:42:31.145                             : Chapter 15
  109. 01:47:23.437                             : Chapter 16
复制代码





                                       
                                       

                                       
                                       
                                       




回复

使用道具 举报

懒得打字嘛,点击右侧快捷回复 【右侧内容,后台自定义】
您需要登录后才可以回帖 登录 | 立即加入

本版积分规则

Archiver|小黑屋| 蓝光电影网 |网站地图

Copyright © 2021 Comsenz Inc. Powered by 蓝光电影网

蓝光电影网

本站内容由用户自主分享和转载自互联网,转载目的在于传递更多信息,并不代表本网赞同其观点和对其真实性负责。

如有侵权、违反国家法律政策行为,请联系我们,我们会第一时间及时清除和处理!

举报反馈邮箱:[email protected]

快速回复 返回顶部 返回列表