找回密码

蓝光电影网

查看: 103|回复: 1

[8bit.SDR] 月光光心慌慌 Halloween.1978.SCREAM.2160p.BluRay.x264.8bit.SDR.DTS-HD.MA.TrueHD.7.1.Atmos-SWTYBLZ 52.30GB

[复制链接]
蓝光币
511
发表于 5 天前 | 显示全部楼层 |阅读模式


◎译  名 月光光心慌慌/John Carpenter's Halloween/万圣节/抓鬼节
◎片  名 Halloween
◎年  代 1978
◎产  地 美国
◎类  别 惊悚 / 可骇
◎语  言 英语
◎上映日期 1978-10-25
◎豆瓣评分 6.7/10 from 12593 users
◎豆瓣链接 https://movie.douban.com/subject/1299586/
◎片  长 91 分钟
◎导  演 约翰·卡朋特 John Carpenter
◎编  剧 约翰·卡朋特 John Carpenter / 黛布拉·希尔 Debra Hill
◎主  演 唐纳德·普利森斯 Donald Pleasence
       杰米·李·柯蒂斯 Jamie Lee Curtis
       南希·凯斯 Nancy Kyes
       P·J·索尔丝 P.J. Soles
       Charles Cyphers Charles Cyphers
       Darla Rae Darla Rae
◎标  签 可骇 | 美国 | 惊悚 | 典范 | 月光光心慌慌 | 1978 | 美国电影 | 可骇片
◎简  介


  十五年前的万圣节,哈登菲尔德镇的六岁男孩迈克尔(威尔?桑丁 Will?Sandin 饰)用一把菜刀杀死了他的姐姐,当人们发现他时,他正双手血淋淋的呆望着天空,不管怎样问话,他连结着阿谁姿势一动也不动。因而,迈克尔被送进了精神医院。在那边,医生费尽了心机,用尽了各类方式,迈克尔还是呆望天空一动也不动。直到1978年的12月30日,迈克尔(东尼?莫兰 Tony?Moran 饰)似乎听到了某种呼唤,偷了精神医院的钥匙,单独偷走回到了故乡哈登菲尔德。一场新的杀戮行将起头……
  1. Video
  2. ID                                       : 1
  3. Format                                   : AVC
  4. Format/Info                              : Advanced Video Codec
  5. Format profile                           : [email protected]
  6. Format settings                          : CABAC / 5 Ref Frames
  7. Format settings, CABAC                   : Yes
  8. Format settings, Reference frames        : 5 frames
  9. Codec ID                                 : V_MPEG4/ISO/AVC
  10. Duration                                 : 1 h 31 min
  11. Bit rate                                 : 72.1 Mb/s
  12. Width                                    : 3 840 pixels
  13. Height                                   : 1 606 pixels
  14. Display aspect ratio                     : 2.40:1
  15. Frame rate mode                          : Constant
  16. Frame rate                               : 24.000 FPS
  17. Color space                              : YUV
  18. Chroma subsampling                       : 4:2:0
  19. Bit depth                                : 8 bits
  20. Scan type                                : Progressive
  21. Bits/(Pixel*Frame)                       : 0.487
  22. Stream size                              : 46.0 GiB (89%)
  23. Writing library                          : x264 core 157 r2935 545de2f
  24. Encoding settings                        : cabac=1 / ref=5 / deblock=1:-1:-1 / analyse=0x3:0x113 / me=umh / subme=10 / psy=1 / psy_rd=1.00:0.15 / mixed_ref=1 / me_range=48 / chroma_me=1 / trellis=2 / 8x8dct=1 / cqm=0 / deadzone=21,11 / fast_pskip=1 / chroma_qp_offset=-3 / threads=50 / lookahead_threads=4 / sliced_threads=0 / nr=0 / decimate=0 / interlaced=0 / bluray_compat=0 / constrained_intra=0 / bframes=3 / b_pyramid=2 / b_adapt=2 / b_bias=0 / direct=3 / weightb=1 / open_gop=0 / weightp=2 / keyint=250 / keyint_min=24 / scenecut=40 / intra_refresh=0 / rc_lookahead=50 / rc=crf / mbtree=1 / crf=19.0 / qcomp=0.60 / qpmin=0 / qpmax=69 / qpstep=4 / ip_ratio=1.40 / aq=1:1.00
  25. Default                                  : Yes
  26. Forced                                   : No

  27. Audio #1
  28. ID                                       : 2
  29. ID in the original source medium         : 4354 (0x1102)
  30. Format                                   : MLP FBA 16-ch
  31. Format/Info                              : Meridian Lossless Packing FBA with 16-channel presentation
  32. Commercial name                          : Dolby TrueHD with Dolby Atmos
  33. Codec ID                                 : A_TRUEHD
  34. Duration                                 : 1 h 31 min
  35. Bit rate mode                            : Variable
  36. Bit rate                                 : 4 551 kb/s
  37. Maximum bit rate                         : 7 509 kb/s
  38. Channel(s)                               : 8 channels
  39. Channel layout                           : L R C LFE Ls Rs Lb Rb
  40. Sampling rate                            : 48.0 kHz
  41. Frame rate                               : 1 200.000 FPS (40 SPF)
  42. Bit depth                                : 24 bits
  43. Compression mode                         : Lossless
  44. Stream size                              : 2.90 GiB (6%)
  45. Title                                    : TrueHD 7.1 Atmos
  46. Language                                 : English
  47. Default                                  : Yes
  48. Forced                                   : No
  49. Original source medium                   : Blu-ray
  50. Number of dynamic objects                : 11
  51. Bed channel count                        : 1 channel
  52. Bed channel configuration                : LFE

  53. Audio #2
  54. ID                                       : 3
  55. Format                                   : DTS XLL
  56. Format/Info                              : Digital Theater Systems
  57. Commercial name                          : DTS-HD Master Audio
  58. Codec ID                                 : A_DTS
  59. Duration                                 : 1 h 31 min
  60. Bit rate mode                            : Variable
  61. Bit rate                                 : 4 274 kb/s
  62. Channel(s)                               : 8 channels
  63. Channel layout                           : C L R LFE Lb Rb Lss Rss
  64. Sampling rate                            : 48.0 kHz
  65. Frame rate                               : 93.750 FPS (512 SPF)
  66. Bit depth                                : 24 bits
  67. Compression mode                         : Lossless
  68. Stream size                              : 2.72 GiB (5%)
  69. Title                                    : DTS-HD MA 7.1
  70. Language                                 : English
  71. Default                                  : No
  72. Forced                                   : No

  73. Audio #3
  74. ID                                       : 4
  75. ID in the original source medium         : 4354 (0x1102)
  76. Format                                   : AC-3
  77. Format/Info                              : Audio Coding 3
  78. Commercial name                          : Dolby Digital
  79. Codec ID                                 : A_AC3
  80. Duration                                 : 1 h 31 min
  81. Bit rate mode                            : Constant
  82. Bit rate                                 : 384 kb/s
  83. Channel(s)                               : 6 channels
  84. Channel layout                           : L R C LFE Ls Rs
  85. Sampling rate                            : 48.0 kHz
  86. Frame rate                               : 31.250 FPS (1536 SPF)
  87. Compression mode                         : Lossy
  88. Stream size                              : 251 MiB (0%)
  89. Title                                    : DD 5.1
  90. Language                                 : English
  91. Service kind                             : Complete Main
  92. Default                                  : No
  93. Forced                                   : No
  94. Original source medium                   : Blu-ray

  95. Text #1
  96. ID                                       : 5
  97. Format                                   : UTF-8
  98. Codec ID                                 : S_TEXT/UTF8
  99. Codec ID/Info                            : UTF-8 Plain Text
  100. Duration                                 : 1 h 25 min
  101. Bit rate                                 : 37 b/s
  102. Count of elements                        : 846
  103. Stream size                              : 23.1 KiB (0%)
  104. Title                                    : SRT
  105. Language                                 : English
  106. Default                                  : Yes
  107. Forced                                   : No

  108. Text #2
  109. ID                                       : 6
  110. ID in the original source medium         : 4768 (0x12A0)
  111. Format                                   : PGS
  112. Muxing mode                              : zlib
  113. Codec ID                                 : S_HDMV/PGS
  114. Codec ID/Info                            : Picture based subtitle format used on BDs/HD-DVDs
  115. Duration                                 : 1 h 29 min
  116. Bit rate                                 : 26.7 kb/s
  117. Count of elements                        : 2280
  118. Stream size                              : 17.1 MiB (0%)
  119. Language                                 : English
  120. Default                                  : No
  121. Forced                                   : No
  122. Original source medium                   : Blu-ray

  123. Menu
  124. 00:00:00.000                             : Chapter 00
  125. 00:11:09.541                             : Chapter 01
  126. 00:18:36.625                             : Chapter 02
  127. 00:26:24.166                             : Chapter 03
  128. 00:33:23.875                             : Chapter 04
  129. 00:42:59.083                             : Chapter 05
  130. 00:50:31.583                             : Chapter 06
  131. 00:58:29.250                             : Chapter 07
  132. 01:06:04.250                             : Chapter 08
  133. 01:12:52.666                             : Chapter 09
  134. 01:20:56.125                             : Chapter 10
  135. 01:26:02.833                             : Chapter 11
复制代码





                                       
                                       

                                       
                                       
                                       




回复

使用道具 举报

蓝光币
13
发表于 3 天前 | 显示全部楼层

论坛不能没有像楼主这样的人才啊!我会一直支持蓝光电影网。
回复 支持 反对

使用道具 举报

懒得打字嘛,点击右侧快捷回复 【右侧内容,后台自定义】
您需要登录后才可以回帖 登录 | 立即加入

本版积分规则

Archiver|小黑屋| 蓝光电影网 |网站地图

Copyright © 2021 Comsenz Inc. Powered by 蓝光电影网

蓝光电影网

本站内容由用户自主分享和转载自互联网,转载目的在于传递更多信息,并不代表本网赞同其观点和对其真实性负责。

如有侵权、违反国家法律政策行为,请联系我们,我们会第一时间及时清除和处理!

举报反馈邮箱:[email protected]

快速回复 返回顶部 返回列表