找回密码

蓝光电影网

查看: 84|回复: 0

[10bit.SDR] 月光光心慌慌 Halloween.1978.SCREAM.2160p.BluRay.x265.10bit.SDR.DTS-HD.MA.TrueHD.7.1.Atmos-SWTYBLZ 47.59GB

[复制链接]
蓝光币
511
发表于 6 天前 | 显示全部楼层 |阅读模式


◎译  名 月光光心慌慌/John Carpenter's Halloween/万圣节/抓鬼节
◎片  名 Halloween
◎年  代 1978
◎产  地 美国
◎类  别 惊悚 / 可骇
◎语  言 英语
◎上映日期 1978-10-25
◎豆瓣评分 6.7/10 from 12593 users
◎豆瓣链接 https://movie.douban.com/subject/1299586/
◎片  长 91 分钟
◎导  演 约翰·卡朋特 John Carpenter
◎编  剧 约翰·卡朋特 John Carpenter / 黛布拉·希尔 Debra Hill
◎主  演 唐纳德·普利森斯 Donald Pleasence
       杰米·李·柯蒂斯 Jamie Lee Curtis
       南希·凯斯 Nancy Kyes
       P·J·索尔丝 P.J. Soles
       Charles Cyphers Charles Cyphers
       Darla Rae Darla Rae
◎标  签 可骇 | 美国 | 惊悚 | 典范 | 月光光心慌慌 | 1978 | 美国电影 | 可骇片
◎简  介


  十五年前的万圣节,哈登菲尔德镇的六岁男孩迈克尔(威尔?桑丁 Will?Sandin 饰)用一把菜刀杀死了他的姐姐,当人们发现他时,他正双手血淋淋的呆望着天空,不管怎样问话,他连结着阿谁姿势一动也不动。因而,迈克尔被送进了精神医院。在那边,医生费尽了心机,用尽了各类方式,迈克尔还是呆望天空一动也不动。直到1978年的12月30日,迈克尔(东尼?莫兰 Tony?Moran 饰)似乎听到了某种呼唤,偷了精神医院的钥匙,单独偷走回到了故乡哈登菲尔德。一场新的杀戮行将起头……
  1. Video
  2. ID                                       : 1
  3. Format                                   : HEVC
  4. Format/Info                              : High Efficiency Video Coding
  5. Format profile                           : Main [email protected]@High
  6. Codec ID                                 : V_MPEGH/ISO/HEVC
  7. Duration                                 : 1 h 31 min
  8. Bit rate                                 : 64.9 Mb/s
  9. Width                                    : 3 840 pixels
  10. Height                                   : 1 606 pixels
  11. Display aspect ratio                     : 2.40:1
  12. Frame rate mode                          : Constant
  13. Frame rate                               : 24.000 FPS
  14. Color space                              : YUV
  15. Chroma subsampling                       : 4:2:0
  16. Bit depth                                : 10 bits
  17. Bits/(Pixel*Frame)                       : 0.438
  18. Stream size                              : 41.3 GiB (87%)
  19. Writing library                          : x265 3.0ed72af837053:[Windows][GCC 8.2.0][64 bit] 10bit
  20. Encoding settings                        : cpuid=1111039 / frame-threads=6 / numa-pools=40 / wpp / no-pmode / no-pme / no-psnr / no-ssim / log-level=2 / input-csp=1 / input-res=3840x1606 / interlace=0 / total-frames=131336 / level-idc=51 / high-tier=1 / uhd-bd=0 / ref=3 / no-allow-non-conformance / repeat-headers / annexb / aud / hrd / info / hash=0 / no-temporal-layers / no-open-gop / min-keyint=1 / keyint=24 / gop-lookahead=0 / bframes=4 / b-adapt=2 / b-pyramid / bframe-bias=0 / rc-lookahead=25 / lookahead-slices=4 / scenecut=40 / radl=0 / no-splice / no-intra-refresh / ctu=64 / min-cu-size=8 / no-rect / no-amp / max-tu-size=32 / tu-inter-depth=1 / tu-intra-depth=1 / limit-tu=0 / rdoq-level=0 / dynamic-rd=0.00 / no-ssim-rd / signhide / no-tskip / nr-intra=0 / nr-inter=0 / no-constrained-intra / strong-intra-smoothing / max-merge=2 / limit-refs=3 / no-limit-modes / me=1 / subme=2 / merange=57 / temporal-mvp / weightp / no-weightb / no-analyze-src-pics / deblock=0:0 / no-sao / no-sao-non-deblock / rd=3 / no-early-skip / rskip / no-fast-intra / no-tskip-fast / no-cu-lossless / no-b-intra / no-splitrd-skip / rdpenalty=0 / psy-rd=2.00 / psy-rdoq=0.00 / no-rd-refine / no-lossless / cbqpoffs=0 / crqpoffs=0 / rc=crf / crf=17.0 / qcomp=0.60 / qpstep=4 / stats-write=0 / stats-read=0 / vbv-maxrate=160000 / vbv-bufsize=160000 / vbv-init=0.9 / crf-max=0.0 / crf-min=0.0 / ipratio=1.40 / pbratio=1.30 / aq-mode=1 / aq-strength=1.00 / cutree / zone-count=0 / no-strict-cbr / qg-size=32 / no-rc-grain / qpmax=69 / qpmin=0 / no-const-vbv / sar=1 / overscan=0 / videoformat=5 / range=0 / colorprim=2 / transfer=2 / colormatrix=2 / chromaloc=0 / display-window=0 / max-cll=0,0 / min-luma=0 / max-luma=1023 / log2-max-poc-lsb=8 / vui-timing-info / vui-hrd-info / slices=1 / opt-qp-pps / opt-ref-list-length-pps / no-multi-pass-opt-rps / scenecut-bias=0.05 / no-opt-cu-delta-qp / no-aq-motion / no-hdr / no-hdr-opt / no-dhdr10-opt / no-idr-recovery-sei / analysis-reuse-level=5 / scale-factor=0 / refine-intra=0 / refine-inter=0 / refine-mv=0 / refine-ctu-distortion=0 / no-limit-sao / ctu-info=0 / no-lowpass-dct / refine-analysis-type=0 / copy-pic=1 / max-ausize-factor=1.0 / no-dynamic-refine / no-single-sei / no-hevc-aq / qp-adaptation-range=1.00
  21. Default                                  : Yes
  22. Forced                                   : No

  23. Audio #1
  24. ID                                       : 2
  25. ID in the original source medium         : 4354 (0x1102)
  26. Format                                   : MLP FBA 16-ch
  27. Format/Info                              : Meridian Lossless Packing FBA with 16-channel presentation
  28. Commercial name                          : Dolby TrueHD with Dolby Atmos
  29. Codec ID                                 : A_TRUEHD
  30. Duration                                 : 1 h 31 min
  31. Bit rate mode                            : Variable
  32. Bit rate                                 : 4 551 kb/s
  33. Maximum bit rate                         : 7 509 kb/s
  34. Channel(s)                               : 8 channels
  35. Channel layout                           : L R C LFE Ls Rs Lb Rb
  36. Sampling rate                            : 48.0 kHz
  37. Frame rate                               : 1 200.000 FPS (40 SPF)
  38. Bit depth                                : 24 bits
  39. Compression mode                         : Lossless
  40. Stream size                              : 2.90 GiB (6%)
  41. Title                                    : TrueHD 7.1 Atmos
  42. Language                                 : English
  43. Default                                  : Yes
  44. Forced                                   : No
  45. Original source medium                   : Blu-ray
  46. Number of dynamic objects                : 11
  47. Bed channel count                        : 1 channel
  48. Bed channel configuration                : LFE

  49. Audio #2
  50. ID                                       : 3
  51. Format                                   : DTS XLL
  52. Format/Info                              : Digital Theater Systems
  53. Commercial name                          : DTS-HD Master Audio
  54. Codec ID                                 : A_DTS
  55. Duration                                 : 1 h 31 min
  56. Bit rate mode                            : Variable
  57. Bit rate                                 : 4 274 kb/s
  58. Channel(s)                               : 8 channels
  59. Channel layout                           : C L R LFE Lb Rb Lss Rss
  60. Sampling rate                            : 48.0 kHz
  61. Frame rate                               : 93.750 FPS (512 SPF)
  62. Bit depth                                : 24 bits
  63. Compression mode                         : Lossless
  64. Stream size                              : 2.72 GiB (6%)
  65. Title                                    : DTS-HD MA 7.1
  66. Language                                 : English
  67. Default                                  : No
  68. Forced                                   : No

  69. Audio #3
  70. ID                                       : 4
  71. ID in the original source medium         : 4354 (0x1102)
  72. Format                                   : AC-3
  73. Format/Info                              : Audio Coding 3
  74. Commercial name                          : Dolby Digital
  75. Codec ID                                 : A_AC3
  76. Duration                                 : 1 h 31 min
  77. Bit rate mode                            : Constant
  78. Bit rate                                 : 384 kb/s
  79. Channel(s)                               : 6 channels
  80. Channel layout                           : L R C LFE Ls Rs
  81. Sampling rate                            : 48.0 kHz
  82. Frame rate                               : 31.250 FPS (1536 SPF)
  83. Compression mode                         : Lossy
  84. Stream size                              : 251 MiB (1%)
  85. Title                                    : DD 5.1
  86. Language                                 : English
  87. Service kind                             : Complete Main
  88. Default                                  : No
  89. Forced                                   : No
  90. Original source medium                   : Blu-ray

  91. Text #1
  92. ID                                       : 5
  93. Format                                   : UTF-8
  94. Codec ID                                 : S_TEXT/UTF8
  95. Codec ID/Info                            : UTF-8 Plain Text
  96. Duration                                 : 1 h 25 min
  97. Bit rate                                 : 37 b/s
  98. Count of elements                        : 846
  99. Stream size                              : 23.1 KiB (0%)
  100. Title                                    : SRT
  101. Language                                 : English
  102. Default                                  : Yes
  103. Forced                                   : No

  104. Text #2
  105. ID                                       : 6
  106. ID in the original source medium         : 4768 (0x12A0)
  107. Format                                   : PGS
  108. Muxing mode                              : zlib
  109. Codec ID                                 : S_HDMV/PGS
  110. Codec ID/Info                            : Picture based subtitle format used on BDs/HD-DVDs
  111. Duration                                 : 1 h 29 min
  112. Bit rate                                 : 26.7 kb/s
  113. Count of elements                        : 2280
  114. Stream size                              : 17.1 MiB (0%)
  115. Language                                 : English
  116. Default                                  : No
  117. Forced                                   : No
  118. Original source medium                   : Blu-ray

  119. Menu
  120. 00:00:00.000                             : Chapter 00
  121. 00:11:09.541                             : Chapter 01
  122. 00:18:36.625                             : Chapter 02
  123. 00:26:24.166                             : Chapter 03
  124. 00:33:23.875                             : Chapter 04
  125. 00:42:59.083                             : Chapter 05
  126. 00:50:31.583                             : Chapter 06
  127. 00:58:29.250                             : Chapter 07
  128. 01:06:04.250                             : Chapter 08
  129. 01:12:52.666                             : Chapter 09
  130. 01:20:56.125                             : Chapter 10
  131. 01:26:02.833                             : Chapter 11
复制代码





                                       
                                       

                                       
                                       
                                       




回复

使用道具 举报

懒得打字嘛,点击右侧快捷回复 【右侧内容,后台自定义】
您需要登录后才可以回帖 登录 | 立即加入

本版积分规则

Archiver|小黑屋| 蓝光电影网 |网站地图

Copyright © 2021 Comsenz Inc. Powered by 蓝光电影网

蓝光电影网

本站内容由用户自主分享和转载自互联网,转载目的在于传递更多信息,并不代表本网赞同其观点和对其真实性负责。

如有侵权、违反国家法律政策行为,请联系我们,我们会第一时间及时清除和处理!

举报反馈邮箱:[email protected]

快速回复 返回顶部 返回列表