找回密码

蓝光电影网

查看: 413|回复: 10

[10bit.HDR] 危情十日/头号书迷 Misery.1990.2160p.UHD.BluRay.x265.10bit.HDR.DTS-HD.MA.5.1-SWTYBLZ 35.72GB

[复制链接]
蓝光币
511
发表于 5 天前 | 显示全部楼层 |阅读模式


◎译  名 危情十日/头号书迷/战栗游戏/米塞莉/米泽丽/磨难
◎片  名 Misery
◎年  代 1990
◎产  地 美国
◎类  别 剧情 / 惊悚 / 犯罪
◎语  言 英语
◎上映日期 1990-11-30
◎豆瓣评分 8.4/10 from 59080 users
◎豆瓣链接 https://movie.douban.com/subject/1292850/
◎片  长 107 分钟
◎导  演 罗伯·莱纳 Rob Reiner
◎编  剧 威廉姆·高德曼 William Goldman / 斯蒂芬·金 Stephen King
◎主  演 詹姆斯·肯恩 James Caan
       凯西·贝茨 Kathy Bates
       理查德·法恩斯沃斯 Richard Farnsworth
       弗朗西斯·斯特恩哈根  Frances Sternhagen
       J·T·沃尔什 J.T. Walsh
       格雷厄姆·贾维斯 Graham Jarvis
       劳伦·白考尔 Lauren Bacall
◎标  签 惊悚 | 斯蒂芬·金 | 悬疑 | 美国 | 可骇 | 犯罪 | 1990 | 美国电影
◎简  介


  畅销书作家保罗?谢尔顿(詹姆斯?凯恩 James Caan 饰)带着他的最新作品《米瑟莉》驱车走在回家的路上。途中他遭受了可怕的狂风雪,轿车发生侧翻变乱,保罗的双腿严重受伤,幸亏被独居在四周山顶的护士安妮?威尔克斯(凯西?贝茨 Kathy Bates 饰)实时相救。安妮是保罗的头号书迷,在她的悉心照顾下,保罗的伤势日渐好转。但当她得悉爱好的女仆人公在保罗的新书中已经灭亡,却难以停止心中的怒火,经过各类手段向保罗施加报复,逐步将作家逼向了失望……
  
  影片按照可骇小说大师斯蒂芬?金的同名小说改编,女配角凯西?贝茨凭仗此片中的疯狂又频频无常的表演,成功斩获了第63届奥斯卡的最好女演员奖。
◎获奖情况
  第63届奥斯卡金像奖 ?(1991)
  最好女配角 凯西·贝茨

  1. Video
  2. ID : 1
  3. Format : HEVC
  4. Format/Info : High Efficiency Video Coding
  5. Format profile : Main [email protected]@High
  6. HDR format : SMPTE ST 2086, HDR10 compatible
  7. Codec ID : V_MPEGH/ISO/HEVC
  8. Duration : 1 h 47 min
  9. Bit rate : 43.1 Mb/s
  10. Width : 3 840 pixels
  11. Height : 2 076 pixels
  12. Display aspect ratio : 1.85:1
  13. Frame rate mode : Constant
  14. Frame rate : 23.976 (24000/1001) FPS
  15. Color space : YUV
  16. Chroma subsampling : 4:2:0 (Type 2)
  17. Bit depth : 10 bits
  18. Bits/(Pixel*Frame) : 0.225
  19. Stream size : 32.3 GiB (91%)
  20. Writing library : x265 3.0_Au+10-74a8672ea4f7:[Windows][GCC 8.2.1][64 bit] 10bit
  21. Encoding settings : cpuid=1111039 / frame-threads=6 / numa-pools=40 / wpp / no-pmode / no-pme / no-psnr / no-ssim / log-level=2 / input-csp=1 / input-res=3840x2076 / interlace=0 / total-frames=0 / level-idc=51 / high-tier=1 / uhd-bd=0 / ref=3 / no-allow-non-conformance / repeat-headers / annexb / aud / hrd / info / hash=0 / no-temporal-layers / no-open-gop / min-keyint=1 / keyint=24 / gop-lookahead=0 / bframes=4 / b-adapt=2 / b-pyramid / bframe-bias=0 / rc-lookahead=25 / lookahead-slices=4 / scenecut=40 / radl=0 / no-splice / no-intra-refresh / ctu=64 / min-cu-size=8 / no-rect / no-amp / max-tu-size=32 / tu-inter-depth=1 / tu-intra-depth=1 / limit-tu=0 / rdoq-level=0 / dynamic-rd=0.00 / no-ssim-rd / signhide / no-tskip / nr-intra=0 / nr-inter=0 / no-constrained-intra / strong-intra-smoothing / max-merge=2 / limit-refs=3 / no-limit-modes / me=1 / subme=2 / merange=57 / temporal-mvp / weightp / no-weightb / no-analyze-src-pics / deblock=0:0 / no-sao / no-sao-non-deblock / rd=3 / no-early-skip / rskip / no-fast-intra / no-tskip-fast / no-cu-lossless / no-b-intra / no-splitrd-skip / rdpenalty=0 / psy-rd=2.00 / psy-rdoq=0.00 / no-rd-refine / no-lossless / cbqpoffs=0 / crqpoffs=0 / rc=crf / crf=16.0 / qcomp=0.60 / qpstep=4 / stats-write=0 / stats-read=0 / vbv-maxrate=160000 / vbv-bufsize=160000 / vbv-init=0.9 / crf-max=0.0 / crf-min=0.0 / ipratio=1.40 / pbratio=1.30 / aq-mode=1 / aq-strength=1.00 / cutree / zone-count=0 / no-strict-cbr / qg-size=32 / no-rc-grain / qpmax=69 / qpmin=0 / no-const-vbv / sar=1 / overscan=0 / videoformat=5 / range=0 / colorprim=9 / transfer=16 / colormatrix=9 / chromaloc=1 / chromaloc-top=2 / chromaloc-bottom=2 / display-window=0 / master-display=G(13250,34500)B(7500,3000)R(34000,16000)WP(15635,16450)L(40000000,50) / max-cll=7130,545 / min-luma=0 / max-luma=1023 / log2-max-poc-lsb=8 / vui-timing-info / vui-hrd-info / slices=1 / opt-qp-pps / opt-ref-list-length-pps / no-multi-pass-opt-rps / scenecut-bias=0.05 / no-opt-cu-delta-qp / no-aq-motion / hdr / hdr-opt / no-dhdr10-opt / no-idr-recovery-sei / analysis-reuse-level=5 / scale-factor=0 / refine-intra=0 / refine-inter=0 / refine-mv=0 / refine-ctu-distortion=0 / no-limit-sao / ctu-info=0 / no-lowpass-dct / refine-analysis-type=-1083263907 / copy-pic=1 / max-ausize-factor=1.0 / no-dynamic-refine / no-single-sei / no-hevc-aq / no-svt / qp-adaptation-range=1.00
  22. Default : Yes
  23. Forced : No
  24. Color range : Limited
  25. Color primaries : BT.2020
  26. Transfer characteristics : PQ
  27. Matrix coefficients : BT.2020 non-constant
  28. Mastering display color primaries : Display P3
  29. Mastering display luminance : min: 0.0050 cd/m2, max: 4000 cd/m2
  30. Maximum Content Light Level : 7130 cd/m2
  31. Maximum Frame-Average Light Level : 545 cd/m2

  32. Audio #1
  33. ID : 2
  34. ID in the original source medium : 4352 (0x1100)
  35. Format : DTS XLL
  36. Format/Info : Digital Theater Systems
  37. Commercial name : DTS-HD Master Audio
  38. Codec ID : A_DTS
  39. Duration : 1 h 47 min
  40. Bit rate mode : Variable
  41. Bit rate : 3 647 kb/s
  42. Channel(s) : 6 channels
  43. Channel layout : C L R Ls Rs LFE
  44. Sampling rate : 48.0 kHz
  45. Frame rate : 93.750 FPS (512 SPF)
  46. Bit depth : 24 bits
  47. Compression mode : Lossless
  48. Stream size : 2.74 GiB (8%)
  49. Title : DTS-HD MA 5.1
  50. Language : English
  51. Default : Yes
  52. Forced : No
  53. Original source medium : Blu-ray

  54. Audio #2
  55. ID : 3
  56. Format : AC-3
  57. Format/Info : Audio Coding 3
  58. Commercial name : Dolby Digital
  59. Codec ID : A_AC3
  60. Duration : 1 h 47 min
  61. Bit rate mode : Constant
  62. Bit rate : 640 kb/s
  63. Channel(s) : 6 channels
  64. Channel layout : L R C LFE Ls Rs
  65. Sampling rate : 48.0 kHz
  66. Frame rate : 31.250 FPS (1536 SPF)
  67. Compression mode : Lossy
  68. Stream size : 492 MiB (1%)
  69. Title : DD 5.1
  70. Language : English
  71. Service kind : Complete Main
  72. Default : No
  73. Forced : No

  74. Text #1
  75. ID : 4
  76. Format : UTF-8
  77. Codec ID : S_TEXT/UTF8
  78. Codec ID/Info : UTF-8 Plain Text
  79. Duration : 1 h 42 min
  80. Bit rate : 43 b/s
  81. Count of elements : 966
  82. Stream size : 32.6 KiB (0%)
  83. Title : SRT
  84. Language : English
  85. Default : Yes
  86. Forced : No

  87. Text #2
  88. ID : 5
  89. ID in the original source medium : 4768 (0x12A0)
  90. Format : PGS
  91. Muxing mode : zlib
  92. Codec ID : S_HDMV/PGS
  93. Codec ID/Info : Picture based subtitle format used on BDs/HD-DVDs
  94. Duration : 1 h 42 min
  95. Bit rate : 23.8 kb/s
  96. Count of elements : 1940
  97. Stream size : 17.4 MiB (0%)
  98. Language : English
  99. Default : No
  100. Forced : No
  101. Original source medium : Blu-ray

  102. Menu
  103. 00:00:00.000 : Chapter 01
  104. 00:07:00.420 : Chapter 02
  105. 00:15:46.946 : Chapter 03
  106. 00:21:47.306 : Chapter 04
  107. 00:27:52.671 : Chapter 05
  108. 00:32:55.974 : Chapter 06
  109. 00:41:27.485 : Chapter 07
  110. 00:46:19.777 : Chapter 08
  111. 00:57:20.437 : Chapter 09
  112. 01:02:58.775 : Chapter 10
  113. 01:09:45.181 : Chapter 11
  114. 01:17:27.643 : Chapter 12
  115. 01:25:30.125 : Chapter 13
  116. 01:36:10.765 : Chapter 14
  117. 01:42:31.145 : Chapter 15
  118. 01:47:23.437 : Chapter 16
复制代码










                                       
                                       

                                       
                                       
                                       




回复

使用道具 举报

蓝光币
14
发表于 5 天前 | 显示全部楼层
有国语音轨吗?
回复 支持 反对

使用道具 举报

蓝光币
511
 楼主| 发表于 5 天前 | 显示全部楼层

没有哦
回复 支持 反对

使用道具 举报

蓝光币
671
发表于 5 天前 | 显示全部楼层

我看不错噢 谢谢楼主!蓝光电影网越来越好!
回复 支持 反对

使用道具 举报

蓝光币
2993
发表于 4 天前 | 显示全部楼层

楼主太厉害了!楼主,电影应该很好看我觉得蓝光电影网真是个好地方!
回复 支持 反对

使用道具 举报

蓝光币
70
发表于 4 天前 | 显示全部楼层

楼主太厉害了!楼主,电影应该很好看我觉得蓝光电影网真是个好地方!
回复 支持 反对

使用道具 举报

蓝光币
3
发表于 4 天前 | 显示全部楼层
这个影片找了好久,蓝光网yyds
回复 支持 反对

使用道具 举报

蓝光币
222
发表于 4 天前 | 显示全部楼层
楼主发贴辛苦了,谢谢楼主分享!我觉得蓝光电影网是注册对了!
回复 支持 反对

使用道具 举报

蓝光币
3
发表于 4 天前 | 显示全部楼层
支持支持支持
回复 支持 反对

使用道具 举报

蓝光币
6
发表于 4 天前 | 显示全部楼层

楼主太厉害了!楼主,电影应该很好看我觉得蓝光电影网真是个好地方!
回复 支持 反对

使用道具 举报

懒得打字嘛,点击右侧快捷回复 【右侧内容,后台自定义】
您需要登录后才可以回帖 登录 | 立即加入

本版积分规则

Archiver|小黑屋| 蓝光电影网 |网站地图

Copyright © 2021 Comsenz Inc. Powered by 蓝光电影网

蓝光电影网

本站内容由用户自主分享和转载自互联网,转载目的在于传递更多信息,并不代表本网赞同其观点和对其真实性负责。

如有侵权、违反国家法律政策行为,请联系我们,我们会第一时间及时清除和处理!

举报反馈邮箱:[email protected]

快速回复 返回顶部 返回列表