找回密码

蓝光电影网

查看: 138|回复: 1

[剧情] 绿衣骑士/绿骑士 The.Green.Knight.2021.1080p.BluRay.x264-PiGNUS 12.28GB

[复制链接]
蓝光币
519
发表于 2021-10-13 08:38:09 | 显示全部楼层 |阅读模式


◎译  名 绿衣骑士/绿骑士(台)
◎片  名 The Green Knight
◎年  代 2021
◎产  地 爱尔兰,加拿大,美国,英国
◎类  别 剧情 / 奇异 / 冒险
◎语  言 英语
◎上映日期 2021-07-30(美国)
◎豆瓣评分 6.5/10 from 10147 users
◎豆瓣链接 https://movie.douban.com/subject/30372022/
◎片  长 130分钟
◎导  演 大卫·洛维 David Lowery
◎编  剧 大卫·洛维 David Lowery
◎主  演 戴夫·帕特尔 Dev Patel
       艾丽西亚·维坎德 Alicia Vikander
       萨莉塔·乔德霍里 Sarita Choudhury
       拉尔夫·伊内森 Ralph Ineson
       西恩·哈里斯 Sean Harris
       乔尔·埃哲顿 Joel Edgerton
       巴里·基奥恩 Barry Keoghan
       艾琳·凯利曼 Erin Kellyman
       雅典娜·弗里泽尔 Atheena Frizzell
       尼塔·米什拉 Nita Mishra
       塔拉·麦克唐纳 Tara McDonagh
       凯特·迪基 Kate Dickie
       阿奈·里佐 Ana?s Rizzo
       克里斯·麦克哈利姆 Chris McHallem
       乔·安德森 Joe Anderson
       Brendan Conroy Brendan Conroy
       唐查·克劳利 Donncha Crowley
       安东尼·莫里斯 Anthony Morris
       诺埃尔·布朗 Noelle Brown
◎标  签 奇异 | 美国 | 2021 | 剧情 | A24 | 惊悚 | 欧美 | 古装
◎简  介


  影片按照故事《高文爵士与绿衣骑士》改编,报告亚瑟王在自己的宫庭里举行宴会。一位绿衣骑士前来向圆桌骑士应战:有谁敢就地砍下他的头,并让他一年后回敬一斧。高文接管应战,砍下了绿衣骑士的头。那具仍然在世的躯体捡起头颅,回到绿色的教堂。一年今后,高文如约去寻觅绿衣骑士。
  1. Video
  2. ID                                       : 1
  3. Format                                   : AVC
  4. Format/Info                              : Advanced Video Codec
  5. Format profile                           : [email protected]
  6. Format settings                          : CABAC / 4 Ref Frames
  7. Format settings, CABAC                   : Yes
  8. Format settings, Reference frames        : 4 frames
  9. Codec ID                                 : V_MPEG4/ISO/AVC
  10. Duration                                 : 2 h 9 min
  11. Bit rate                                 : 9 349 kb/s
  12. Width                                    : 1 920 pixels
  13. Height                                   : 1 036 pixels
  14. Display aspect ratio                     : 1.85:1
  15. Frame rate mode                          : Constant
  16. Frame rate                               : 23.976 (24000/1001/189150) FPS
  17. Color space                              : YUV
  18. Chroma subsampling                       : 4:2:0
  19. Bit depth                                : 8 bits
  20. Scan type                                : Progressive
  21. Bits/(Pixel*Frame)                       : 0.196
  22. Stream size                              : 8.47 GiB (69%)
  23. Writing library                          : x264 core 164 r3075 66a5bc1
  24. Encoding settings                        : cabac=1 / ref=4 / deblock=1:-3:-3 / analyse=0x3:0x133 / me=umh / subme=9 / psy=1 / psy_rd=1.00:0.00 / mixed_ref=1 / me_range=16 / chroma_me=1 / trellis=2 / 8x8dct=1 / cqm=0 / deadzone=21,11 / fast_pskip=1 / chroma_qp_offset=-2 / threads=32 / lookahead_threads=2 / sliced_threads=0 / nr=0 / decimate=1 / interlaced=0 / bluray_compat=0 / constrained_intra=0 / bframes=3 / b_pyramid=2 / b_adapt=2 / b_bias=0 / direct=3 / weightb=1 / open_gop=0 / weightp=2 / keyint=250 / keyint_min=23 / scenecut=40 / intra_refresh=0 / rc_lookahead=60 / rc=crf / mbtree=1 / crf=15.5 / qcomp=0.60 / qpmin=0 / qpmax=69 / qpstep=4 / ip_ratio=1.40 / aq=1:1.00
  25. Default                                  : Yes
  26. Forced                                   : No

  27. Audio #1
  28. ID                                       : 2
  29. Format                                   : MLP FBA 16-ch
  30. Format/Info                              : Meridian Lossless Packing FBA with 16-channel presentation
  31. Commercial name                          : Dolby TrueHD with Dolby Atmos
  32. Codec ID                                 : A_TRUEHD
  33. Duration                                 : 2 h 9 min
  34. Bit rate mode                            : Variable
  35. Bit rate                                 : 3 476 kb/s
  36. Maximum bit rate                         : 5 781 kb/s
  37. Channel(s)                               : 8 channels
  38. Channel layout                           : L R C LFE Ls Rs Lb Rb
  39. Sampling rate                            : 48.0 kHz
  40. Frame rate                               : 1 200.000 FPS (40 SPF)
  41. Compression mode                         : Lossless
  42. Stream size                              : 3.15 GiB (26%)
  43. Language                                 : English
  44. Default                                  : Yes
  45. Forced                                   : No
  46. Number of dynamic objects                : 11
  47. Bed channel count                        : 1 channel
  48. Bed channel configuration                : LFE

  49. Audio #2
  50. ID                                       : 3
  51. Format                                   : AC-3
  52. Format/Info                              : Audio Coding 3
  53. Commercial name                          : Dolby Digital
  54. Format settings                          : Dolby Surround EX
  55. Codec ID                                 : A_AC3
  56. Duration                                 : 2 h 9 min
  57. Bit rate mode                            : Constant
  58. Bit rate                                 : 640 kb/s
  59. Channel(s)                               : 6 channels
  60. Channel layout                           : L R C LFE Ls Rs
  61. Sampling rate                            : 48.0 kHz
  62. Frame rate                               : 31.250 FPS (1536 SPF)
  63. Compression mode                         : Lossy
  64. Stream size                              : 594 MiB (5%)
  65. Language                                 : English
  66. Service kind                             : Complete Main
  67. Default                                  : Yes
  68. Forced                                   : No

  69. Text #1
  70. ID                                       : 4
  71. Format                                   : PGS
  72. Muxing mode                              : zlib
  73. Codec ID                                 : S_HDMV/PGS
  74. Codec ID/Info                            : Picture based subtitle format used on BDs/HD-DVDs
  75. Duration                                 : 2 h 8 min
  76. Bit rate                                 : 19.8 kb/s
  77. Count of elements                        : 2374
  78. Stream size                              : 18.3 MiB (0%)
  79. Title                                    : English SDH
  80. Language                                 : English
  81. Default                                  : No
  82. Forced                                   : No

  83. Text #2
  84. ID                                       : 5
  85. Format                                   : PGS
  86. Muxing mode                              : zlib
  87. Codec ID                                 : S_HDMV/PGS
  88. Codec ID/Info                            : Picture based subtitle format used on BDs/HD-DVDs
  89. Duration                                 : 2 h 9 min
  90. Bit rate                                 : 12.9 kb/s
  91. Count of elements                        : 1506
  92. Stream size                              : 11.9 MiB (0%)
  93. Title                                    : Spanish
  94. Language                                 : Spanish
  95. Default                                  : No
  96. Forced                                   : No

  97. Menu
  98. 00:00:00.000                             : en:Chapter 01
  99. 00:06:54.956                             : en:Chapter 02
  100. 00:15:04.445                             : en:Chapter 03
  101. 00:25:13.220                             : en:Chapter 04
  102. 00:32:26.695                             : en:Chapter 05
  103. 00:41:46.504                             : en:Chapter 06
  104. 00:48:36.539                             : en:Chapter 07
  105. 00:54:26.096                             : en:Chapter 08
  106. 01:02:32.290                             : en:Chapter 09
  107. 01:09:30.917                             : en:Chapter 10
  108. 01:14:42.978                             : en:Chapter 11
  109. 01:22:58.974                             : en:Chapter 12
  110. 01:30:42.145                             : en:Chapter 13
  111. 01:37:10.533                             : en:Chapter 14
  112. 01:48:51.692                             : en:Chapter 15
  113. 02:00:00.485                             : en:Chapter 16
  114. 02:09:46.570                             : en:Chapter 17
复制代码





                                       
                                       

                                       
                                       
                                       




回复

使用道具 举报

蓝光币
20
发表于 2021-10-14 16:14:00 | 显示全部楼层
感谢分享 楼主辛苦了 先顶再下
回复 支持 反对

使用道具 举报

懒得打字嘛,点击右侧快捷回复 【右侧内容,后台自定义】
您需要登录后才可以回帖 登录 | 立即加入

本版积分规则

Archiver|小黑屋| 蓝光电影网 |网站地图

Copyright © 2021 Comsenz Inc. Powered by 蓝光电影网

蓝光电影网

本站内容由用户自主分享和转载自互联网,转载目的在于传递更多信息,并不代表本网赞同其观点和对其真实性负责。

如有侵权、违反国家法律政策行为,请联系我们,我们会第一时间及时清除和处理!

举报反馈邮箱:[email protected]

快速回复 返回顶部 返回列表