找回密码

蓝光电影网

查看: 102|回复: 2

[喜剧] 不准欺骗我们 Dont.Play.Us.Cheap.1972.1080p.BluRay.x264.DD3.0-HANDJOB 8.03GB

[复制链接]
蓝光币
519
发表于 2021-10-13 08:54:43 | 显示全部楼层 |阅读模式


◎译  名 不准欺骗我们
◎片  名 Don't Play Us Cheap
◎年  代 1973
◎产  地 美国
◎类  别 笑剧 / 恋爱 / 歌舞
◎语  言 英语
◎上映日期 1973
◎豆瓣评分 /10 from 0 users
◎豆瓣链接 https://movie.douban.com/subject/5054903/
◎片  长 99 分钟
◎导  演 马文·范·皮伯斯 Melvin Van Peebles
◎编  剧 马文·范·皮伯斯 Melvin Van Peebles
◎主  演 Jay Van Leer Jay Van Leer
       埃文·朗 Avon Long
       Mabel King Mabel King
       Joshie Armstead Joshie Armstead
       Thomas Anderson Thomas Anderson
       埃丝特·罗尔 Esther Rolle
        Frank Carey
◎标  签 CC | 歌舞 | 笑剧 | Melvin_Van_Peebles | 音乐 | 美国 | 恋爱 | CC标准
◎简  介


  Film version of Melvin Van Peebles' Broadway musical. A pair of devil-bats take human form and crash a Harlem house party in an attempt to break it up. But somehow, their attempts to ruin the party fail.
  1. Video
  2. ID                                       : 1
  3. Format                                   : AVC
  4. Format/Info                              : Advanced Video Codec
  5. Format profile                           : [email protected]
  6. Format settings                          : CABAC / 4 Ref Frames
  7. Format settings, CABAC                   : Yes
  8. Format settings, Reference frames        : 4 frames
  9. Codec ID                                 : V_MPEG4/ISO/AVC
  10. Duration                                 : 1 h 42 min
  11. Bit rate                                 : 10.6 Mb/s
  12. Width                                    : 1 800 pixels
  13. Height                                   : 1 080 pixels
  14. Display aspect ratio                     : 5:3
  15. Frame rate mode                          : Constant
  16. Frame rate                               : 23.976 (24000/1001/189150) FPS
  17. Color space                              : YUV
  18. Chroma subsampling                       : 4:2:0
  19. Bit depth                                : 8 bits
  20. Scan type                                : Progressive
  21. Bits/(Pixel*Frame)                       : 0.227
  22. Stream size                              : 7.56 GiB (94%)
  23. Writing library                          : x264 core 163 r3059 b684ebe0
  24. Encoding settings                        : cabac=1 / ref=4 / deblock=1:-3:-3 / analyse=0x3:0x133 / me=umh / subme=10 / psy=1 / psy_rd=1.00:0.00 / mixed_ref=1 / me_range=32 / chroma_me=1 / trellis=2 / 8x8dct=1 / cqm=0 / deadzone=21,11 / fast_pskip=0 / chroma_qp_offset=-2 / threads=24 / lookahead_threads=6 / sliced_threads=0 / nr=0 / decimate=0 / interlaced=0 / bluray_compat=0 / constrained_intra=0 / bframes=16 / b_pyramid=2 / b_adapt=2 / b_bias=0 / direct=3 / weightb=1 / open_gop=0 / weightp=2 / keyint=240 / keyint_min=24 / scenecut=40 / intra_refresh=0 / rc_lookahead=60 / rc=crf / mbtree=0 / crf=22.0 / qcomp=0.60 / qpmin=0 / qpmax=69 / qpstep=4 / vbv_maxrate=62500 / vbv_bufsize=78125 / crf_max=0.0 / nal_hrd=none / filler=0 / ip_ratio=1.40 / pb_ratio=1.30 / aq=2:1.00
  25. Default                                  : Yes
  26. Forced                                   : No
  27. Color range                              : Limited
  28. Color primaries                          : BT.709
  29. Transfer characteristics                 : BT.709
  30. Matrix coefficients                      : BT.709
  31. Audio
  32. ID                                       : 2
  33. Format                                   : AC-3
  34. Format/Info                              : Audio Coding 3
  35. Commercial name                          : Dolby Digital
  36. Codec ID                                 : A_AC3
  37. Duration                                 : 1 h 42 min
  38. Bit rate mode                            : Constant
  39. Bit rate                                 : 640 kb/s
  40. Channel(s)                               : 3 channels
  41. Channel layout                           : L R C
  42. Sampling rate                            : 48.0 kHz
  43. Frame rate                               : 31.250 FPS (1536 SPF)
  44. Compression mode                         : Lossy
  45. Stream size                              : 469 MiB (6%)
  46. Language                                 : English
  47. Service kind                             : Complete Main
  48. Default                                  : Yes
  49. Forced                                   : No
  50. Text #1
  51. ID                                       : 3
  52. Format                                   : UTF-8
  53. Codec ID                                 : S_TEXT/UTF8
  54. Codec ID/Info                            : UTF-8 Plain Text
  55. Duration                                 : 1 h 41 min
  56. Bit rate                                 : 82 b/s
  57. Count of elements                        : 1673
  58. Stream size                              : 61.7 KiB (0%)
  59. Title                                    : SRT
  60. Language                                 : English
  61. Default                                  : Yes
  62. Forced                                   : No
  63. Text #2
  64. ID                                       : 4
  65. Format                                   : PGS
  66. Muxing mode                              : zlib
  67. Codec ID                                 : S_HDMV/PGS
  68. Codec ID/Info                            : Picture based subtitle format used on BDs/HD-DVDs
  69. Duration                                 : 1 h 41 min
  70. Bit rate                                 : 77.6 kb/s
  71. Count of elements                        : 3617
  72. Stream size                              : 56.4 MiB (1%)
  73. Language                                 : English
  74. Default                                  : No
  75. Forced                                   : No
  76. Menu
  77. 00:00:00.000                             : :Chapter 1
  78. 00:11:02.954                             : :Chapter 2
  79. 00:15:53.828                             : :Chapter 3
  80. 00:19:43.516                             : :Chapter 4
  81. 00:23:20.566                             : :Chapter 5
  82. 00:26:29.254                             : :Chapter 6
  83. 00:31:40.482                             : :Chapter 7
  84. 00:35:06.771                             : :Chapter 8
  85. 00:43:34.654                             : :Chapter 9
  86. 00:49:24.962                             : :Chapter 10
  87. 00:52:30.731                             : :Chapter 11
  88. 00:58:01.645                             : :Chapter 12
  89. 01:07:34.008                             : :Chapter 13
  90. 01:12:37.854                             : :Chapter 14
  91. 01:17:30.729                             : :Chapter 15
  92. 01:20:02.381                             : :Chapter 16
  93. 01:29:20.647                             : :Chapter 17
  94. 01:35:43.029                             : :Chapter 18
  95. 01:41:52.523                             : :Chapter 19
复制代码







                                       
                                       

                                       
                                       
                                       




回复

使用道具 举报

蓝光币
10
发表于 2021-10-13 20:22:12 | 显示全部楼层

其实我一直觉得楼主的品味不错!呵呵!蓝光电影网太棒了!
回复 支持 反对

使用道具 举报

蓝光币
26
发表于 2021-10-14 09:26:39 | 显示全部楼层
楼主发贴辛苦了,谢谢楼主分享!我觉得蓝光电影网是注册对了!
回复 支持 反对

使用道具 举报

懒得打字嘛,点击右侧快捷回复 【右侧内容,后台自定义】
您需要登录后才可以回帖 登录 | 立即加入

本版积分规则

Archiver|小黑屋| 蓝光电影网 |网站地图

Copyright © 2021 Comsenz Inc. Powered by 蓝光电影网

蓝光电影网

本站内容由用户自主分享和转载自互联网,转载目的在于传递更多信息,并不代表本网赞同其观点和对其真实性负责。

如有侵权、违反国家法律政策行为,请联系我们,我们会第一时间及时清除和处理!

举报反馈邮箱:[email protected]

快速回复 返回顶部 返回列表