找回密码

蓝光电影网

查看: 138|回复: 0

[惊悚] 哀愁灰姑娘 Melancholy.2021.JAPANESE.1080p.BluRay.x264.DDP7.1-c0kE 11.47GB

[复制链接]
蓝光币
519
发表于 2021-10-13 08:42:13 | 显示全部楼层 |阅读模式


◎译  名 忧愁灰姑娘/Melancholy/The Cinderella Addiction
◎片  名 忧愁しんでれら
◎年  代 2021
◎产  地 日本
◎类  别 惊悚 / 可骇
◎语  言 日语
◎上映日期 2021-02-05(日本)
◎豆瓣评分 5.8/10 from 2055 users
◎豆瓣链接 https://movie.douban.com/subject/35072961/
◎片  长 114分钟
◎导  演 渡部亮平 Ry?hei Watanabe
◎编  剧 渡部亮平 Ry?hei Watanabe
◎主  演 土屋太凤 Tao Tsuchiya
       田中圭 Kei Tanaka
       山田杏奈 Anna Yamada
       安藤轮子 Wako And?
       金泽美穗 Miho Kanazawa
       中村靖日 Yasuhi Nakamura
       正名仆蔵 Bokuz? Masana
       银粉蝶 Guin Poon Chaw
       石桥凌 Ryo Ishibashi
◎标  签 日本 | 犯罪 | 2021 | 田中圭 | 日本电影 | 土屋太凤 | 电影 | 日影
◎简  介


  该片女主是一位在市役所工作的普通职员“小春”,却在一晚之间遭受了庞大的不幸——祖父病倒被送进医院,父亲因酒驾被带进局里,自己家宅子起火烧光,差人在领会情况时,小春发现自己的情人出轨了自己的同事……。一个早晨落空了一切。而在这样的小春眼前,出现了一位带着八岁女儿的医生“大悟”,仿佛王子一样的人他向小春求婚,并将小春从不幸的谷底带到幸运的顶峰。但是,在某一日,小春却激发了一场前所未闻的凶暴事务……
  1. Video
  2. ID                                       : 1
  3. Format                                   : AVC
  4. Format/Info                              : Advanced Video Codec
  5. Format profile                           : [email protected]
  6. Format settings                          : CABAC / 5 Ref Frames
  7. Format settings, CABAC                   : Yes
  8. Format settings, Reference frames        : 5 frames
  9. Codec ID                                 : V_MPEG4/ISO/AVC
  10. Duration                                 : 1 h 54 min
  11. Bit rate                                 : 12.7 Mb/s
  12. Width                                    : 1 920 pixels
  13. Height                                   : 804 pixels
  14. Display aspect ratio                     : 2.40:1
  15. Frame rate mode                          : Constant
  16. Frame rate                               : 23.976 (24000/1001/189150) FPS
  17. Color space                              : YUV
  18. Chroma subsampling                       : 4:2:0
  19. Bit depth                                : 8 bits
  20. Scan type                                : Progressive
  21. Bits/(Pixel*Frame)                       : 0.344
  22. Stream size                              : 10.2 GiB (89%)
  23. Title                                    : Melancholy (2021) / c0kE
  24. Writing library                          : x264 core 164 r3065+62M b012ed0 devel [(8 & 10)[email protected] X86_64]
  25. Encoding settings                        : cabac=1 / ref=5 / deblock=1:-3:-3 / analyse=0x3:0x133 / me=umh / subme=10 / psy=1 / fade_compensate=0.00 / psy_rd=1.02:0.00 / mixed_ref=1 / me_range=32 / chroma_me=1 / trellis=2 / 8x8dct=1 / cqm=0 / deadzone=21,11 / fast_pskip=0 / chroma_qp_offset=-2 / threads=12 / lookahead_threads=3 / sliced_threads=0 / nr=0 / decimate=0 / interlaced=0 / bluray_compat=0 / constrained_intra=0 / fgo=0 / bframes=10 / b_pyramid=2 / b_adapt=2 / b_bias=0 / direct=3 / weightb=1 / open_gop=0 / weightp=2 / keyint=250 / keyint_min=23 / scenecut=40 / intra_refresh=0 / rc_lookahead=60 / rc=crf / mbtree=0 / crf=16.5000 / qcomp=0.65 / qpmin=0:0:0 / qpmax=69:69:69 / qpstep=4 / vbv_maxrate=62500 / vbv_bufsize=78125 / crf_max=0.0 / nal_hrd=none / filler=0 / ip_ratio=1.30 / pb_ratio=1.20 / aq=3:0.80 / aq-sensitivity=10.00 / aq-factor=1.00:1.00:1.00 / aq2=0 / aq3=0
  26. Language                                 : Japanese
  27. Default                                  : Yes
  28. Forced                                   : No
  29. Color range                              : Limited
  30. Color primaries                          : BT.709
  31. Matrix coefficients                      : BT.709
  32. Audio
  33. ID                                       : 2
  34. Format                                   : E-AC-3
  35. Format/Info                              : Enhanced AC-3
  36. Commercial name                          : Dolby Digital Plus
  37. Format profile                           : Blu-ray Disc
  38. Codec ID                                 : A_EAC3
  39. Duration                                 : 1 h 54 min
  40. Bit rate mode                            : Constant
  41. Bit rate                                 : 1 536 kb/s
  42. Channel(s)                               : 8 channels
  43. Channel layout                           : L R C LFE Ls Rs Lb Rb
  44. Sampling rate                            : 48.0 kHz
  45. Frame rate                               : 31.250 FPS (1536 SPF)
  46. Compression mode                         : Lossy
  47. Stream size                              : 1.23 GiB (11%)
  48. Language                                 : Japanese
  49. Service kind                             : Complete Main
  50. Default                                  : Yes
  51. Forced                                   : No
  52. Text
  53. ID                                       : 3
  54. Format                                   : UTF-8
  55. Codec ID                                 : S_TEXT/UTF8
  56. Codec ID/Info                            : UTF-8 Plain Text
  57. Duration                                 : 1 h 53 min
  58. Bit rate                                 : 36 b/s
  59. Count of elements                        : 1155
  60. Stream size                              : 30.6 KiB (0%)
  61. Language                                 : English
  62. Default                                  : Yes
  63. Forced                                   : No
  64. Menu
  65. 00:00:00.000                             : Chapter 01
  66. 00:01:54.823                             : Chapter 02
  67. 00:09:51.591                             : Chapter 03
  68. 00:18:09.463                             : Chapter 04
  69. 00:30:45.302                             : Chapter 05
  70. 00:46:53.477                             : Chapter 06
  71. 00:58:47.232                             : Chapter 07
  72. 01:13:52.219                             : Chapter 08
  73. 01:23:13.906                             : Chapter 09
  74. 01:31:56.469                             : Chapter 10
  75. 01:39:19.579                             : Chapter 11
  76. 01:45:48.884                             : Chapter 12
复制代码






                                       
                                       

                                       
                                       
                                       




回复

使用道具 举报

懒得打字嘛,点击右侧快捷回复 【右侧内容,后台自定义】
您需要登录后才可以回帖 登录 | 立即加入

本版积分规则

Archiver|小黑屋| 蓝光电影网 |网站地图

Copyright © 2021 Comsenz Inc. Powered by 蓝光电影网

蓝光电影网

本站内容由用户自主分享和转载自互联网,转载目的在于传递更多信息,并不代表本网赞同其观点和对其真实性负责。

如有侵权、违反国家法律政策行为,请联系我们,我们会第一时间及时清除和处理!

举报反馈邮箱:[email protected]

快速回复 返回顶部 返回列表