找回密码

蓝光电影网

查看: 145|回复: 1

[喜剧] 20岁的差距/20岁差距的恋爱 It.Boy.2013.FRENCH.1080p.BluRay.x264.DTS-PTer 12.41GB

[复制链接]
蓝光币
519
发表于 2021-10-13 08:53:11 | 显示全部楼层 |阅读模式


◎译  名 20岁的差异/20岁差异的恋爱/20岁年下男的恋爱/20年的间隔/It Boy
◎片  名 20 ans d'écart
◎年  代 2013
◎产  地 法国
◎类  别 笑剧 / 恋爱
◎语  言 法语
◎上映日期 2013-03-06(法国)
◎豆瓣评分 6.8/10 from 12543 users
◎豆瓣链接 https://movie.douban.com/subject/19969446/
◎片  长 92分钟
◎导  演 大卫·莫罗 David Moreau
◎编  剧 阿姆鲁·哈姆扎维 Amro Hamzawi / 大卫·莫罗 David Moreau
◎主  演 夏尔·贝尔林 Charles Berling
       维尔日妮·埃菲拉 Virginie Efira
       皮埃尔·尼内 Pierre Niney
       泽维尔·勒梅特 Xavier Lema?tre
       Camille Pélicier Camille Pélicier
       阿蒂尔·马泽 Arthur Mazet
       卡米尔·沙隆 Camille Chalons
       Camille Japy Camille Japy
       阿梅莉·格朗 Amélie Glenn
       吉勒·科昂 Gilles Cohen
       斯卡利·德尔佩拉 Scali Delpeyrat
◎标  签 恋爱 | 法国 | 笑剧 | 法国电影 | 姐弟恋 | 轻松滑稽 | 很法国的一部电影 | 2013
◎简  介


  爱丽丝·朗丹(维尔日妮·埃菲拉 Virginie Efira 饰)是一个38岁的单亲妈妈,她很标致而且上进,可是在前夫眼里她很无趣,是以她满身心寄情于杂志社的工作。爱丽丝原本有资历成为下一任主编,可是下属和同事纷纷感觉她的形象太老气和呆板,无法的她意气消沉。一次坐飞机途 中,她巧遇了刚满20岁的年轻帅小伙巴尔塔扎(皮埃尔·尼内 Pierre Niney 饰),两人在一路的时辰被同事看见并误解她搞起了时兴的姐弟恋,是以他们对她的态度也改变了。爱丽丝感觉这个意外是她升职的关键,因而自动起头了蛊惑巴尔塔扎的计划,本是无意的相遇却酿成了愈演愈烈的纠葛。
  1. Video
  2. ID                                       : 1
  3. Format                                   : AVC
  4. Format/Info                              : Advanced Video Codec
  5. Format profile                           : [email protected]
  6. Format settings                          : CABAC / 5 Ref Frames
  7. Format settings, CABAC                   : Yes
  8. Format settings, Reference frames        : 5 frames
  9. Codec ID                                 : V_MPEG4/ISO/AVC
  10. Duration                                 : 1 h 32 min
  11. Bit rate                                 : 17.7 Mb/s
  12. Width                                    : 1 920 pixels
  13. Height                                   : 808 pixels
  14. Display aspect ratio                     : 2.40:1
  15. Frame rate mode                          : Constant
  16. Frame rate                               : 24.000 FPS
  17. Color space                              : YUV
  18. Chroma subsampling                       : 4:2:0
  19. Bit depth                                : 8 bits
  20. Scan type                                : Progressive
  21. Bits/(Pixel*Frame)                       : 0.474
  22. Stream size                              : 11.4 GiB (92%)
  23. Writing library                          : x264 core 161 r3027 4121277
  24. Encoding settings                        : cabac=1 / ref=5 / deblock=1:-3:-3 / analyse=0x3:0x133 / me=umh / subme=11 / psy=1 / psy_rd=1.02:0.00 / mixed_ref=1 / me_range=32 / chroma_me=1 / trellis=2 / 8x8dct=1 / cqm=0 / deadzone=21,11 / fast_pskip=0 / chroma_qp_offset=-2 / threads=18 / lookahead_threads=4 / sliced_threads=0 / nr=0 / decimate=0 / interlaced=0 / bluray_compat=0 / constrained_intra=0 / bframes=16 / b_pyramid=2 / b_adapt=2 / b_bias=0 / direct=3 / weightb=1 / open_gop=0 / weightp=2 / keyint=250 / keyint_min=24 / scenecut=40 / intra_refresh=0 / rc_lookahead=250 / rc=crf / mbtree=0 / crf=19.0 / qcomp=0.60 / qpmin=0 / qpmax=69 / qpstep=4 / vbv_maxrate=62500 / vbv_bufsize=78125 / crf_max=0.0 / nal_hrd=none / filler=0 / ip_ratio=1.30 / pb_ratio=1.20 / aq=3:0.80
  25. Language                                 : French
  26. Default                                  : Yes
  27. Forced                                   : No
  28. Color range                              : Limited
  29. Color primaries                          : BT.709
  30. Matrix coefficients                      : BT.709
  31. Audio
  32. ID                                       : 2
  33. Format                                   : DTS
  34. Format/Info                              : Digital Theater Systems
  35. Codec ID                                 : A_DTS
  36. Duration                                 : 1 h 32 min
  37. Bit rate mode                            : Constant
  38. Bit rate                                 : 1 509 kb/s
  39. Channel(s)                               : 6 channels
  40. Channel layout                           : C L R Ls Rs LFE
  41. Sampling rate                            : 48.0 kHz
  42. Frame rate                               : 93.750 FPS (512 SPF)
  43. Bit depth                                : 24 bits
  44. Compression mode                         : Lossy
  45. Stream size                              : 999 MiB (8%)
  46. Language                                 : French
  47. Default                                  : Yes
  48. Forced                                   : No
  49. Text #1
  50. ID                                       : 3
  51. Format                                   : UTF-8
  52. Codec ID                                 : S_TEXT/UTF8
  53. Codec ID/Info                            : UTF-8 Plain Text
  54. Duration                                 : 1 h 27 min
  55. Bit rate                                 : 62 b/s
  56. Count of elements                        : 1405
  57. Stream size                              : 40.2 KiB (0%)
  58. Title                                    : Simplified Chinese&English
  59. Language                                 : Chinese
  60. Default                                  : Yes
  61. Forced                                   : No
  62. Text #2
  63. ID                                       : 4
  64. Format                                   : UTF-8
  65. Codec ID                                 : S_TEXT/UTF8
  66. Codec ID/Info                            : UTF-8 Plain Text
  67. Duration                                 : 1 h 27 min
  68. Bit rate                                 : 59 b/s
  69. Count of elements                        : 1413
  70. Stream size                              : 38.0 KiB (0%)
  71. Language                                 : English
  72. Default                                  : No
  73. Forced                                   : No
  74. Text #3
  75. ID                                       : 5
  76. Format                                   : PGS
  77. Muxing mode                              : zlib
  78. Codec ID                                 : S_HDMV/PGS
  79. Codec ID/Info                            : Picture based subtitle format used on BDs/HD-DVDs
  80. Duration                                 : 1 h 32 min
  81. Bit rate                                 : 38.0 kb/s
  82. Count of elements                        : 3006
  83. Stream size                              : 25.2 MiB (0%)
  84. Language                                 : French
  85. Default                                  : No
  86. Forced                                   : No
  87. Menu
  88. 00:00:00.000                             : Chapter 1
  89. 00:07:29.625                             : Chapter 2
  90. 00:13:56.083                             : Chapter 3
  91. 00:21:12.625                             : Chapter 4
  92. 00:28:49.917                             : Chapter 5
  93. 00:37:18.875                             : Chapter 6
  94. 00:45:08.958                             : Chapter 7
  95. 00:53:21.583                             : Chapter 8
  96. 01:02:53.875                             : Chapter 9
  97. 01:11:13.917                             : Chapter 10
  98. 01:19:59.000                             : Chapter 11
  99. 01:26:44.875                             : Chapter 12
复制代码






                                       
                                       

                                       
                                       
                                       




回复

使用道具 举报

蓝光币
2
发表于 2021-10-14 09:01:41 | 显示全部楼层

楼主太厉害了!楼主,电影应该很好看我觉得蓝光电影网真是个好地方!
回复 支持 反对

使用道具 举报

懒得打字嘛,点击右侧快捷回复 【右侧内容,后台自定义】
您需要登录后才可以回帖 登录 | 立即加入

本版积分规则

Archiver|小黑屋| 蓝光电影网 |网站地图

Copyright © 2021 Comsenz Inc. Powered by 蓝光电影网

蓝光电影网

本站内容由用户自主分享和转载自互联网,转载目的在于传递更多信息,并不代表本网赞同其观点和对其真实性负责。

如有侵权、违反国家法律政策行为,请联系我们,我们会第一时间及时清除和处理!

举报反馈邮箱:[email protected]

快速回复 返回顶部 返回列表