找回密码

蓝光电影网

查看: 92|回复: 0

[喜剧] 大笑的继承人 Lachende.Erben.1933.GERMAN.1080p.BluRay.x264.FLAC.2.0-EDPH 8.03GB

[复制链接]
蓝光币
519
发表于 2021-10-13 08:51:09 | 显示全部楼层 |阅读模式


◎译  名 大笑的继续人/Laughing Heirs
◎片  名 Lachende Erben
◎年  代 1933
◎产  地 德语
◎类  别 笑剧 / 恋爱
◎语  言 德国
◎上映日期 1933-03-06
◎豆瓣评分 /10 from 0 users
◎豆瓣链接 https://movie.douban.com/subject/3321418/
◎片  长 76 分钟
◎导  演 马克斯·奥菲尔斯 Max Ophüls
◎编  剧 费利克斯·雅克松 Felix Jackson / 马克斯·奥菲尔斯 Max Ophüls
◎主  演 莉恩·德耶尔斯 Lien Deyers
       海因茨·吕曼 Heinz Rühmann
       Ida Wüst Ida Wüst
       Lizzi Waldmüller Lizzi Waldmüller
       Max Wilmsen Max Wilmsen
       Walter Steinbeck Walter Steinbeck
       沃尔特·扬森 Walter Janssen
       Heinrich Gotho Heinrich Gotho
       Friedl Haerlin Friedl Haerlin
       Illo Gutschwager Illo Gutschwager
       Friedrich Ettel Friedrich Ettel
       麦克斯·阿德尔伯特 Max Adalbert
       朱利叶斯·法尔肯施泰因 Julius Falkenstein
◎标  签 德国 | 黑白 | 马克斯·奥菲尔斯 | 德国电影 | MaxOphüls | 笑剧 | Max_Ophüls | 1930s
◎简  介


  To Max Ophüls this was an assignment (from the UFA), a pure routine job. One hardly recognizes the later Ophüls in this film (shortly made before his masterpiece "Liebelei"), but still Ophüls made this routine job into a well-paced, stylish and sometimes extremely funny romantic comedy; he probably could not do it any other way. The script is fine with some hilarious dialogue. The use of the surnames of the characters is simple but clever.
  
  Having Ophüls in mind the film can also be considered a celebration of happy-go-lucky life: contrasted are those who live an easy going, wine and dine life with those whose narrow-minded life is based on punctuality and mineral water. Maybe that is why the film was banned in 1937: it was considered a film that could endanger public order and national-socialist feelings.
  
  Good cast with Heinz Rühmann who shows his natural comic talent at best and Max Adalbert who is very good as the grumpy uncle; supporting cast good as well. Chauvinism makes me want to point out Lien Deyers (as Gina), a fine, charming and attractive actress from The Netherlands who had a successful career in German cinema.
  1. Video
  2. ID                                       : 1
  3. Format                                   : AVC
  4. Format/Info                              : Advanced Video Codec
  5. Format profile                           : [email protected]
  6. Format settings                          : CABAC / 5 Ref Frames
  7. Format settings, CABAC                   : Yes
  8. Format settings, Reference frames        : 5 frames
  9. Codec ID                                 : V_MPEG4/ISO/AVC
  10. Duration                                 : 1 h 15 min
  11. Bit rate                                 : 14.9 Mb/s
  12. Width                                    : 1 480 pixels
  13. Height                                   : 1 080 pixels
  14. Display aspect ratio                     : 1.370
  15. Frame rate mode                          : Constant
  16. Frame rate                               : 24.000 FPS
  17. Color space                              : YUV
  18. Chroma subsampling                       : 4:2:0
  19. Bit depth                                : 8 bits
  20. Scan type                                : Progressive
  21. Bits/(Pixel*Frame)                       : 0.388
  22. Stream size                              : 7.88 GiB (98%)
  23. Writing library                          : x264 core 160 r3009 4c9b076
  24. Encoding settings                        : cabac=1 / ref=5 / deblock=1:-3:-3 / analyse=0x3:0x133 / me=umh / subme=11 / psy=1 / psy_rd=1.02:0.00 / mixed_ref=1 / me_range=32 / chroma_me=1 / trellis=2 / 8x8dct=1 / cqm=0 / deadzone=21,11 / fast_pskip=0 / chroma_qp_offset=-2 / threads=34 / lookahead_threads=8 / sliced_threads=0 / nr=0 / decimate=0 / interlaced=0 / bluray_compat=0 / constrained_intra=0 / bframes=16 / b_pyramid=2 / b_adapt=2 / b_bias=0 / direct=3 / weightb=1 / open_gop=0 / weightp=2 / keyint=250 / keyint_min=24 / scenecut=40 / intra_refresh=0 / rc_lookahead=250 / rc=crf / mbtree=0 / crf=24.0 / qcomp=0.65 / qpmin=0 / qpmax=69 / qpstep=4 / vbv_maxrate=62500 / vbv_bufsize=78125 / crf_max=0.0 / nal_hrd=none / filler=0 / ip_ratio=1.30 / pb_ratio=1.20 / aq=3:0.60
  25. Language                                 : English
  26. Default                                  : Yes
  27. Forced                                   : No
  28. Color range                              : Limited
  29. Color primaries                          : BT.709
  30. Matrix coefficients                      : BT.709
  31. Audio
  32. ID                                       : 2
  33. Format                                   : FLAC
  34. Format/Info                              : Free Lossless Audio Codec
  35. Codec ID                                 : A_FLAC
  36. Duration                                 : 1 h 15 min
  37. Bit rate mode                            : Variable
  38. Bit rate                                 : 279 kb/s
  39. Channel(s)                               : 2 channels
  40. Channel layout                           : L R
  41. Sampling rate                            : 48.0 kHz
  42. Frame rate                               : 11.719 FPS (4096 SPF)
  43. Bit depth                                : 16 bits
  44. Compression mode                         : Lossless
  45. Stream size                              : 151 MiB (2%)
  46. Writing library                          : libFLAC 1.2.1 (UTC 2007-09-17)
  47. Language                                 : German
  48. Default                                  : Yes
  49. Forced                                   : No
  50. Text
  51. ID                                       : 3
  52. Format                                   : UTF-8
  53. Codec ID                                 : S_TEXT/UTF8
  54. Codec ID/Info                            : UTF-8 Plain Text
  55. Duration                                 : 1 h 13 min
  56. Bit rate                                 : 80 b/s
  57. Count of elements                        : 1064
  58. Stream size                              : 43.9 KiB (0%)
  59. Language                                 : English
  60. Default                                  : No
  61. Forced                                   : No
  62. Menu
  63. 00:00:00.000                             : en:Chapter 1
  64. 00:10:30.250                             : en:Chapter 2
  65. 00:20:48.958                             : en:Chapter 3
  66. 00:26:19.625                             : en:Chapter 4
  67. 00:36:21.875                             : en:Chapter 5
  68. 00:43:46.041                             : en:Chapter 6
  69. 00:51:54.541                             : en:Chapter 7
  70. 01:05:08.708                             : en:Chapter 8
复制代码




                                       
                                       

                                       
                                       
                                       




回复

使用道具 举报

懒得打字嘛,点击右侧快捷回复 【右侧内容,后台自定义】
您需要登录后才可以回帖 登录 | 立即加入

本版积分规则

Archiver|小黑屋| 蓝光电影网 |网站地图

Copyright © 2021 Comsenz Inc. Powered by 蓝光电影网

蓝光电影网

本站内容由用户自主分享和转载自互联网,转载目的在于传递更多信息,并不代表本网赞同其观点和对其真实性负责。

如有侵权、违反国家法律政策行为,请联系我们,我们会第一时间及时清除和处理!

举报反馈邮箱:[email protected]

快速回复 返回顶部 返回列表