找回密码

蓝光电影网

查看: 170|回复: 2

[其他] 贡达/豬嘜農莊(港) Gunda.2020.NORWEGIAN.1080p.BluRay.x264.DD5.1-PTer 9.92GB

[复制链接]
蓝光币
519
发表于 2021-10-13 08:53:43 | 显示全部楼层 |阅读模式


◎译  名 贡达/豬嘜農莊(港)
◎片  名 Gunda
◎年  代 2020
◎产  地 挪威,美国
◎类  别 记载片
◎语  言 无对白
◎上映日期 2020-02-23(柏林电影节) / 2020-12-11(美国)
◎豆瓣评分 7.3/10 from 516 users
◎豆瓣链接 https://movie.douban.com/subject/34951524/
◎片  长 93分钟
◎导  演 维克多·科萨科夫斯基 Victor Kossakovsky
◎编  剧 维克多·科萨科夫斯基 Victor Kossakovsky
◎标  签 记载片 | 2020 | 挪威 | 美国 | 柏林电影节 | 黑白 | P-BerlinB入围奇遇单元 | 2020s
◎简  介


  经过与母猪(同名[贡达])、两头聪明的母牛和一只抢镜头的独腿鸡的相遇,提醒我们生命的固有代价和一切动物认识的奥秘,包括我们自己的认识。
◎获奖情况
  第70届柏林国际电影节 ?(2020)
  碰见单元最好影片(提名) 维克多·科萨科夫斯基
  
  第33届欧洲电影奖 ?(2020)
  最好记载片(提名)
  
  第35届美国摄影协会奖 ?(2021)
  记载片最好摄影(提名) EgilH?skjoldLarsen?/?维克多·科萨科夫斯基
  
  第25届金卫星奖 ?(2021)
  电影部分最好记载片(提名)
  1. Video
  2. ID                                       : 1
  3. Format                                   : AVC
  4. Format/Info                              : Advanced Video Codec
  5. Format profile                           : [email protected]
  6. Format settings                          : CABAC / 4 Ref Frames
  7. Format settings, CABAC                   : Yes
  8. Format settings, Reference frames        : 4 frames
  9. Codec ID                                 : V_MPEG4/ISO/AVC
  10. Duration                                 : 1 h 32 min
  11. Bit rate                                 : 14.6 Mb/s
  12. Width                                    : 1 920 pixels
  13. Height                                   : 1 038 pixels
  14. Display aspect ratio                     : 1.85:1
  15. Frame rate mode                          : Constant
  16. Frame rate                               : 24.000 FPS
  17. Color space                              : YUV
  18. Chroma subsampling                       : 4:2:0
  19. Bit depth                                : 8 bits
  20. Scan type                                : Progressive
  21. Bits/(Pixel*Frame)                       : 0.306
  22. Stream size                              : 9.50 GiB (96%)
  23. Writing library                          : x264 core 164 r3065 ae03d92
  24. Encoding settings                        : cabac=1 / ref=4 / deblock=1:-3:-3 / analyse=0x3:0x133 / me=umh / subme=11 / psy=1 / psy_rd=1.02:0.00 / mixed_ref=1 / me_range=32 / chroma_me=1 / trellis=2 / 8x8dct=1 / cqm=0 / deadzone=21,11 / fast_pskip=0 / chroma_qp_offset=-2 / threads=18 / lookahead_threads=3 / sliced_threads=0 / nr=0 / decimate=0 / interlaced=0 / bluray_compat=0 / constrained_intra=0 / bframes=7 / b_pyramid=2 / b_adapt=2 / b_bias=0 / direct=3 / weightb=1 / open_gop=0 / weightp=2 / keyint=250 / keyint_min=24 / scenecut=40 / intra_refresh=0 / rc_lookahead=250 / rc=crf / mbtree=0 / crf=17.9 / qcomp=0.60 / qpmin=0 / qpmax=69 / qpstep=4 / vbv_maxrate=62500 / vbv_bufsize=78125 / crf_max=0.0 / nal_hrd=none / filler=0 / ip_ratio=1.30 / pb_ratio=1.20 / aq=3:0.80
  25. Default                                  : Yes
  26. Forced                                   : No
  27. Color range                              : Limited
  28. Color primaries                          : BT.709
  29. Matrix coefficients                      : BT.709
  30. Audio
  31. ID                                       : 2
  32. Format                                   : AC-3
  33. Format/Info                              : Audio Coding 3
  34. Commercial name                          : Dolby Digital
  35. Codec ID                                 : A_AC3
  36. Duration                                 : 1 h 32 min
  37. Bit rate mode                            : Constant
  38. Bit rate                                 : 640 kb/s
  39. Channel(s)                               : 6 channels
  40. Channel layout                           : L R C LFE Ls Rs
  41. Sampling rate                            : 48.0 kHz
  42. Frame rate                               : 31.250 FPS (1536 SPF)
  43. Compression mode                         : Lossy
  44. Stream size                              : 425 MiB (4%)
  45. Title                                    : Norwegian Bokm?l
  46. Language                                 : Norwegian
  47. Service kind                             : Complete Main
  48. Default                                  : Yes
  49. Forced                                   : No
  50. Text
  51. ID                                       : 3
  52. Format                                   : UTF-8
  53. Codec ID                                 : S_TEXT/UTF8
  54. Codec ID/Info                            : UTF-8 Plain Text
  55. Duration                                 : 1 h 32 min
  56. Bit rate                                 : 6 b/s
  57. Count of elements                        : 247
  58. Stream size                              : 4.15 KiB (0%)
  59. Language                                 : English
  60. Default                                  : No
  61. Forced                                   : No
  62. Menu
  63. 00:00:00.000                             : Chapter 01
  64. 00:11:56.167                             : Chapter 02
  65. 00:23:57.500                             : Chapter 03
  66. 00:35:13.750                             : Chapter 04
  67. 00:49:09.250                             : Chapter 05
  68. 01:03:15.292                             : Chapter 06
  69. 01:14:28.583                             : Chapter 07
  70. 01:23:10.125                             : Chapter 08
复制代码







                                       
                                       

                                       
                                       
                                       




回复

使用道具 举报

蓝光币
28
发表于 2021-10-13 11:19:15 | 显示全部楼层
通过与母猪(同名[贡达])、两头聪明的母牛和一只抢镜头的独腿鸡的相遇,提醒我们生命的固有价值和所有动物意识的奥秘,包括我们自己的意识。
回复 支持 反对

使用道具 举报

蓝光币
29
发表于 2021-10-13 15:11:24 | 显示全部楼层
意识流的片子,看看如何
回复 支持 反对

使用道具 举报

懒得打字嘛,点击右侧快捷回复 【右侧内容,后台自定义】
您需要登录后才可以回帖 登录 | 立即加入

本版积分规则

Archiver|小黑屋| 蓝光电影网 |网站地图

Copyright © 2021 Comsenz Inc. Powered by 蓝光电影网

蓝光电影网

本站内容由用户自主分享和转载自互联网,转载目的在于传递更多信息,并不代表本网赞同其观点和对其真实性负责。

如有侵权、违反国家法律政策行为,请联系我们,我们会第一时间及时清除和处理!

举报反馈邮箱:[email protected]

快速回复 返回顶部 返回列表