找回密码

蓝光电影网

查看: 150|回复: 2

[剧情] 监狱 Prison.1949.SWEDISH.1080p.BluRay.x264.FLAC.1.0-HANDJOB 6.57GB

[复制链接]
蓝光币
519
发表于 2021-10-13 09:18:31 | 显示全部楼层 |阅读模式


◎译  名 牢狱/Prison
◎片  名 F?ngelse
◎年  代 1949
◎产  地 瑞典
◎类  别 剧情
◎语  言 瑞典语
◎上映日期 1949-03-19
◎豆瓣评分 7.4/10 from 1590 users
◎豆瓣链接 https://movie.douban.com/subject/1304652/
◎片  长 98 分钟
◎导  演 英格玛·伯格曼 Ingmar Bergman
◎编  剧 英格玛·伯格曼 Ingmar Bergman
◎主  演 多丽丝·斯韦德隆德 Doris Svedlund
       比耶·马尔姆斯滕 Birger Malmsten
       埃娃·亨宁 Eva Henning
       哈塞·埃克曼 Hasse Ekman
       斯蒂格·奥林 Stig Olin
       伊尔玛·克里斯滕松 Irma Christenson
       Segol Mann Segol Mann
       B?rje Mellvig B?rje Mellvig
       Torsten Lilliecrona Torsten Lilliecrona
       Inger Juel Inger Juel
       Bibi Lindqvist Bibi Lindqvist
       Marianne L?fgren Marianne L?fgren
       Curt Masreliez Curt Masreliez
       乌尔夫·帕姆 Ulf Palme
       Lasse Sarri Lasse Sarri
       Arne Ragneborn Arne Ragneborn
       Harry Karlsson Harry Karlsson
       Gunilla Klosterborg Gunilla Klosterborg
       Britta Holmberg Britta Holmberg
       安德斯·亨里克森 Anders Henrikson
       John W. Bj?rling John W. Bj?rling
       Anita Blom Anita Blom
       Britta Brunius Britta Brunius
       G?sta Ericsson G?sta Ericsson
       肯尼·凡特 Kenne Fant
       奥克·弗里德尔 ?ke Fridell
       ?ke Engfeldt ?ke Engfeldt
       Karl ?hman Karl ?hman
◎标  签 英格玛·伯格曼 | 瑞典 | 伯格曼 | 1949 | IngmarBergman | 1940s | Ingmar_Bergman | 黑白
◎简  介


  A movie director is approached by his old math teacher with a great movie idea: the Devil declares that the Earth is hell. The director rejects the idea, but subsequent events in the life of a writer, a friend of the director's, and a young prostitute he loves seem to prove the math teacher's idea.
  1. Video
  2. ID                                       : 1
  3. Format                                   : AVC
  4. Format/Info                              : Advanced Video Codec
  5. Format profile                           : [email protected]
  6. Format settings                          : CABAC / 5 Ref Frames
  7. Format settings, CABAC                   : Yes
  8. Format settings, Reference frames        : 5 frames
  9. Codec ID                                 : V_MPEG4/ISO/AVC
  10. Duration                                 : 1 h 20 min
  11. Bit rate                                 : 11.4 Mb/s
  12. Width                                    : 1 440 pixels
  13. Height                                   : 1 080 pixels
  14. Display aspect ratio                     : 4:3
  15. Frame rate mode                          : Constant
  16. Frame rate                               : 24.000 FPS
  17. Color space                              : YUV
  18. Chroma subsampling                       : 4:2:0
  19. Bit depth                                : 8 bits
  20. Scan type                                : Progressive
  21. Bits/(Pixel*Frame)                       : 0.305
  22. Stream size                              : 6.40 GiB (97%)
  23. Writing library                          : x264 core 157 r2935 545de2f
  24. Encoding settings                        : cabac=1 / ref=5 / deblock=1:-3:-3 / analyse=0x3:0x133 / me=umh / subme=10 / psy=1 / psy_rd=1.00:0.00 / mixed_ref=1 / me_range=32 / chroma_me=1 / trellis=2 / 8x8dct=1 / cqm=0 / deadzone=21,11 / fast_pskip=0 / chroma_qp_offset=-2 / threads=34 / lookahead_threads=8 / sliced_threads=0 / nr=0 / decimate=0 / interlaced=0 / bluray_compat=0 / constrained_intra=0 / bframes=16 / b_pyramid=2 / b_adapt=2 / b_bias=0 / direct=3 / weightb=1 / open_gop=0 / weightp=2 / keyint=240 / keyint_min=24 / scenecut=40 / intra_refresh=0 / rc_lookahead=60 / rc=crf / mbtree=0 / crf=24.0 / qcomp=0.65 / qpmin=0 / qpmax=69 / qpstep=4 / vbv_maxrate=62500 / vbv_bufsize=78125 / crf_max=0.0 / nal_hrd=none / filler=0 / ip_ratio=1.40 / pb_ratio=1.30 / aq=2:0.80
  25. Default                                  : Yes
  26. Forced                                   : No
  27. Color range                              : Limited
  28. Color primaries                          : BT.709
  29. Transfer characteristics                 : BT.709
  30. Matrix coefficients                      : BT.709
  31. Audio
  32. ID                                       : 2
  33. Format                                   : FLAC
  34. Format/Info                              : Free Lossless Audio Codec
  35. Codec ID                                 : A_FLAC
  36. Duration                                 : 1 h 20 min
  37. Bit rate mode                            : Variable
  38. Bit rate                                 : 293 kb/s
  39. Channel(s)                               : 1 channel
  40. Channel layout                           : C
  41. Sampling rate                            : 48.0 kHz
  42. Frame rate                               : 11.719 FPS (4096 SPF)
  43. Bit depth                                : 16 bits
  44. Compression mode                         : Lossless
  45. Stream size                              : 169 MiB (3%)
  46. Writing library                          : libFLAC 1.2.1 (UTC 2007-09-17)
  47. Language                                 : Swedish
  48. Default                                  : Yes
  49. Forced                                   : No
  50. Text
  51. ID                                       : 3
  52. Format                                   : UTF-8
  53. Codec ID                                 : S_TEXT/UTF8
  54. Codec ID/Info                            : UTF-8 Plain Text
  55. Duration                                 : 1 h 17 min
  56. Bit rate                                 : 51 b/s
  57. Count of elements                        : 712
  58. Stream size                              : 29.0 KiB (0%)
  59. Language                                 : English
  60. Default                                  : Yes
  61. Forced                                   : No
  62. Menu
  63. 00:00:00.000                             : :On Set
  64. 00:08:18.292                             : :Some Questions
  65. 00:11:15.292                             : :The Film
  66. 00:16:57.375                             : :Temple of the Ridiculous
  67. 00:20:47.583                             : :Are You Tired?
  68. 00:24:36.083                             : :We\'re From the Police
  69. 00:31:19.583                             : :A Close Shave
  70. 00:36:33.000                             : :I Won\'t Eat You
  71. 00:41:23.833                             : :A Cinematograph
  72. 00:47:52.500                             : :Don\'t Be Afraid
  73. 00:53:23.208                             : :What\'s Wrong?
  74. 00:59:38.833                             : :A True Gentleman
  75. 01:01:27.750                             : :So, You\'re Back
  76. 01:05:33.125                             : :Look, It\'s Alf
  77. 01:09:33.667                             : :No Pain
  78. 01:14:31.750                             : :I\'ve Come Home
  79. 01:18:57.208                             : :End Credits
复制代码







                                       
                                       

                                       
                                       
                                       




回复

使用道具 举报

蓝光币
71
发表于 2021-10-13 10:22:56 | 显示全部楼层
楼主发贴辛苦了,谢谢楼主分享!我觉得蓝光电影网是注册对了!
回复 支持 反对

使用道具 举报

蓝光币
79
发表于 2021-10-13 23:20:43 | 显示全部楼层
这东西我收了!谢谢楼主!蓝光电影网真好!
回复 支持 反对

使用道具 举报

懒得打字嘛,点击右侧快捷回复 【右侧内容,后台自定义】
您需要登录后才可以回帖 登录 | 立即加入

本版积分规则

Archiver|小黑屋| 蓝光电影网 |网站地图

Copyright © 2021 Comsenz Inc. Powered by 蓝光电影网

蓝光电影网

本站内容由用户自主分享和转载自互联网,转载目的在于传递更多信息,并不代表本网赞同其观点和对其真实性负责。

如有侵权、违反国家法律政策行为,请联系我们,我们会第一时间及时清除和处理!

举报反馈邮箱:[email protected]

快速回复 返回顶部 返回列表