找回密码

蓝光电影网

查看: 132|回复: 1

[剧情] 淡淡的爱 A.Touch.of.Love.1969.1080p.BluRay.x264.DTS-FGT 9.76GB

[复制链接]
蓝光币
519
发表于 2021-10-13 09:00:51 | 显示全部楼层 |阅读模式


◎译  名 淡淡的爱
◎片  名 A Touch of Love
◎年  代 1969
◎产  地 英国
◎类  别 剧情
◎语  言 英语
◎上映日期 1969-09(英国)
◎豆瓣评分 /10 from 0 users
◎豆瓣链接 https://movie.douban.com/subject/3593588/
◎片  长 107 分钟
◎导  演 瓦里丝·侯赛因 Waris Hussein
◎编  剧 玛格丽特·德拉布尔 Margaret Drabble
◎主  演 伊恩·麦克莱恩 Ian McKellen
       桑迪·丹尼斯 Sandy Dennis
       伊莲诺·布罗 Eleanor Bron
       约翰·斯坦丁 John Standing
       玛格丽特·提扎克 Margaret Tyzack
       Peggy Thorpe-Bates Peggy Thorpe-Bates
       罗杰·汉蒙德 Roger Hammond
       希拉·弗雷泽 Shelagh Fraser
       莫瑞斯·德纳姆 Maurice Denham
       Michael Coles Michael Coles
       瑞切尔·凯姆普森 Rachel Kempson
◎标  签 英国 | Sandy_Dennis | 英国电影 | 剧情 | McKellen | Ian | 金熊奖(提名) | 无资本
◎简  介


  She Has a Nice Job. And a Nice Baby. What More Could a Single Girl Want?
◎获奖情况
  第19届柏林国际电影节 ?(1969)
  金熊奖最好影片(提名) 瓦里丝·侯赛因
  1. Video
  2. ID                                       : 1
  3. Format                                   : AVC
  4. Format/Info                              : Advanced Video Codec
  5. Format profile                           : [email protected]
  6. Format settings                          : CABAC / 4 Ref Frames
  7. Format settings, CABAC                   : Yes
  8. Format settings, Reference frames        : 4 frames
  9. Codec ID                                 : V_MPEG4/ISO/AVC
  10. Duration                                 : 1 h 47 min
  11. Bit rate                                 : 11.5 Mb/s
  12. Width                                    : 1 796 pixels
  13. Height                                   : 1 080 pixels
  14. Display aspect ratio                     : 5:3
  15. Frame rate mode                          : Constant
  16. Frame rate                               : 24.000 FPS
  17. Color space                              : YUV
  18. Chroma subsampling                       : 4:2:0
  19. Bit depth                                : 8 bits
  20. Scan type                                : Progressive
  21. Bits/(Pixel*Frame)                       : 0.247
  22. Stream size                              : 8.63 GiB (88%)
  23. Writing library                          : x264 core 148 r2795M aaa9aa8
  24. Encoding settings                        : cabac=1 / ref=4 / deblock=1:-2:-2 / analyse=0x3:0x113 / me=umh / subme=9 / psy=1 / psy_rd=1.00:0.15 / mixed_ref=1 / me_range=16 / chroma_me=1 / trellis=2 / 8x8dct=1 / cqm=0 / deadzone=21,11 / fast_pskip=1 / chroma_qp_offset=-3 / threads=24 / lookahead_threads=3 / sliced_threads=0 / nr=0 / decimate=1 / interlaced=0 / bluray_compat=0 / constrained_intra=0 / bframes=3 / b_pyramid=2 / b_adapt=1 / b_bias=0 / direct=3 / weightb=1 / open_gop=0 / weightp=2 / keyint=250 / keyint_min=25 / scenecut=40 / intra_refresh=0 / rc_lookahead=50 / rc=2pass / mbtree=1 / bitrate=11500 / ratetol=1.0 / qcomp=0.60 / qpmin=0 / qpmax=69 / qpstep=4 / cplxblur=20.0 / qblur=0.5 / vbv_maxrate=31250 / vbv_bufsize=31250 / nal_hrd=none / filler=0 / ip_ratio=1.40 / aq=1:1.00
  25. Language                                 : English
  26. Default                                  : Yes
  27. Forced                                   : No
  28. Audio
  29. ID                                       : 2
  30. Format                                   : DTS
  31. Format/Info                              : Digital Theater Systems
  32. Codec ID                                 : A_DTS
  33. Duration                                 : 1 h 47 min
  34. Bit rate mode                            : Constant
  35. Bit rate                                 : 1 509 kb/s
  36. Channel(s)                               : 2 channels
  37. Channel layout                           : L R
  38. Sampling rate                            : 48.0 kHz
  39. Frame rate                               : 93.750 FPS (512 SPF)
  40. Bit depth                                : 16 bits
  41. Compression mode                         : Lossy
  42. Stream size                              : 1.13 GiB (12%)
  43. Language                                 : English
  44. Default                                  : Yes
  45. Forced                                   : No
  46. Text
  47. ID                                       : 3
  48. Format                                   : UTF-8
  49. Codec ID                                 : S_TEXT/UTF8
  50. Codec ID/Info                            : UTF-8 Plain Text
  51. Duration                                 : 1 h 38 min
  52. Bit rate                                 : 69 b/s
  53. Count of elements                        : 1845
  54. Stream size                              : 50.0 KiB (0%)
  55. Language                                 : English
  56. Default                                  : Yes
  57. Forced                                   : No
  58. Menu
  59. 00:00:00.000                             : Chapter 01
  60. 00:10:17.625                             : Chapter 02
  61. 00:15:42.875                             : Chapter 03
  62. 00:24:34.833                             : Chapter 04
  63. 00:32:32.958                             : Chapter 05
  64. 00:44:51.291                             : Chapter 06
  65. 00:53:10.833                             : Chapter 07
  66. 00:59:57.458                             : Chapter 08
  67. 01:07:10.791                             : Chapter 09
  68. 01:17:03.791                             : Chapter 10
  69. 01:26:10.458                             : Chapter 11
  70. 01:38:51.041                             : Chapter 12
复制代码






                                       
                                       

                                       
                                       
                                       




回复

使用道具 举报

蓝光币
11
发表于 2021-10-14 22:12:37 | 显示全部楼层
谢谢楼主分享
回复 支持 反对

使用道具 举报

懒得打字嘛,点击右侧快捷回复 【右侧内容,后台自定义】
您需要登录后才可以回帖 登录 | 立即加入

本版积分规则

Archiver|小黑屋| 蓝光电影网 |网站地图

Copyright © 2021 Comsenz Inc. Powered by 蓝光电影网

蓝光电影网

本站内容由用户自主分享和转载自互联网,转载目的在于传递更多信息,并不代表本网赞同其观点和对其真实性负责。

如有侵权、违反国家法律政策行为,请联系我们,我们会第一时间及时清除和处理!

举报反馈邮箱:[email protected]

快速回复 返回顶部 返回列表