找回密码

蓝光电影网

查看: 137|回复: 1

[惊悚] 夜间小屋/夜之屋 The.Night.House.2020.1080p.BluRay.x264.DTS-HD.MA.5.1-MT 13.10GB

[复制链接]
蓝光币
519
发表于 2021-10-13 09:05:02 | 显示全部楼层 |阅读模式


◎译  名 夜间小屋/夜之屋/夜屋/鬼屋
◎片  名 The Night House
◎年  代 2020
◎产  地 英国,美国
◎类  别 惊悚 / 可骇
◎语  言 英语
◎上映日期 2020-01-24(圣丹斯电影节) / 2021-08-20(美国)
◎豆瓣评分 6.4/10 from 4833 users
◎豆瓣链接 https://movie.douban.com/subject/30323687/
◎片  长 107分钟
◎导  演 大卫·布鲁克纳 David Bruckner
◎编  剧 本·柯林斯 Ben Collins / 卢克·皮厄特罗斯基 Luke Piotrowski
◎主  演 丽贝卡·豪尔 Rebecca Hall
       萨拉·古德伯格 Sarah Goldberg
       沃迪·科蒂斯·霍尔 Vondie Curtis-Hall
       伊万·乔尼凯特 Evan Jonigkeit
       斯塔西·马汀 Stacy Martin
       大卫·埃伯利斯 David Abeles
       克里斯蒂娜·杰克逊 Christina Jackson
       帕特里克·克莱因 Patrick Klein
       克里斯托·斯旺 Crystal Swann
       劳拉·奥斯丁 Laura Austin
       雅各布·加勒特·怀特 Jacob Garrett White
       萨曼莎·布克 Samantha Buck
       莉·恩斯林 Lea Enslin
◎标  签 可骇 | 惊悚 | 美国 | 悬疑 | 灵异 | 超自然 | 2021 | 鬼屋
◎简  介


  贝丝(丽贝卡·豪尔 Rebecca Hall饰)在师长欧文(伊万·乔尼凯特 Evan Jonigkeit饰)过世后,单独住在师长生前为她所建造的湖边小屋中,虽然她尽力保持一般的生活,但噩梦仍朝她袭来,她感遭到屋内似乎有一些不服常的消息,而在朋友的倡议下试图从师长的遗物中 找寻答案,因而她决心解开这使人不安的奥秘……
  1. Video
  2. ID                                       : 1
  3. Format                                   : AVC
  4. Format/Info                              : Advanced Video Codec
  5. Format profile                           : [email protected]
  6. Format settings                          : CABAC / 5 Ref Frames
  7. Format settings, CABAC                   : Yes
  8. Format settings, Reference frames        : 5 frames
  9. Codec ID                                 : V_MPEG4/ISO/AVC
  10. Duration                                 : 1 h 47 min
  11. Bit rate                                 : 14.1 Mb/s
  12. Width                                    : 1 920 pixels
  13. Height                                   : 800 pixels
  14. Display aspect ratio                     : 2.40:1
  15. Frame rate mode                          : Constant
  16. Frame rate                               : 23.976 (24000/1001/189150) FPS
  17. Color space                              : YUV
  18. Chroma subsampling                       : 4:2:0
  19. Bit depth                                : 8 bits
  20. Scan type                                : Progressive
  21. Bits/(Pixel*Frame)                       : 0.384
  22. Stream size                              : 10.6 GiB (81%)
  23. Writing library                          : x264 core 157 r2938 2b00a84 [email protected] Mod
  24. Encoding settings                        : cabac=1 / ref=5 / deblock=1:-3:-3 / analyse=0x3:0x133 / me=umh / subme=10 / psy=1 / psy_rd=1.05:0.00 / mixed_ref=1 / me_range=32 / chroma_me=1 / trellis=2 / 8x8dct=1 / cqm=0 / deadzone=21,11 / fast_pskip=0 / chroma_qp_offset=-2 / threads=12 / lookahead_threads=2 / sliced_threads=0 / nr=0 / decimate=0 / interlaced=0 / bluray_compat=0 / constrained_intra=0 / bframes=8 / b_pyramid=2 / b_adapt=2 / b_bias=0 / direct=3 / weightb=1 / open_gop=0 / weightp=2 / keyint=250 / keyint_min=24 / scenecut=40 / intra_refresh=0 / rc_lookahead=250 / rc=crf / mbtree=0 / crf=16.8 / qcomp=0.60 / qpmin=0 / qpmax=69 / qpstep=4 / vbv_maxrate=62500 / vbv_bufsize=78125 / crf_max=0.0 / nal_hrd=none / filler=0 / ip_ratio=1.30 / pb_ratio=1.20 / aq=3:0.80
  25. Language                                 : English
  26. Default                                  : Yes
  27. Forced                                   : No
  28. Color range                              : Limited
  29. Color primaries                          : BT.709
  30. Matrix coefficients                      : BT.709
  31. Audio
  32. ID                                       : 2
  33. Format                                   : DTS XLL
  34. Format/Info                              : Digital Theater Systems
  35. Commercial name                          : DTS-HD Master Audio
  36. Codec ID                                 : A_DTS
  37. Duration                                 : 1 h 47 min
  38. Bit rate mode                            : Variable
  39. Bit rate                                 : 3 377 kb/s
  40. Channel(s)                               : 6 channels
  41. Channel layout                           : C L R Ls Rs LFE
  42. Sampling rate                            : 48.0 kHz
  43. Frame rate                               : 93.750 FPS (512 SPF)
  44. Bit depth                                : 24 bits
  45. Compression mode                         : Lossless
  46. Stream size                              : 2.52 GiB (19%)
  47. Language                                 : English
  48. Default                                  : Yes
  49. Forced                                   : No
  50. Text #1
  51. ID                                       : 3
  52. Format                                   : UTF-8
  53. Codec ID                                 : S_TEXT/UTF8
  54. Codec ID/Info                            : UTF-8 Plain Text
  55. Duration                                 : 1 h 39 min
  56. Bit rate                                 : 29 b/s
  57. Count of elements                        : 769
  58. Stream size                              : 21.4 KiB (0%)
  59. Title                                    : SRT
  60. Language                                 : English
  61. Default                                  : Yes
  62. Forced                                   : No
  63. Text #2
  64. ID                                       : 4
  65. Format                                   : PGS
  66. Muxing mode                              : zlib
  67. Codec ID                                 : S_HDMV/PGS
  68. Codec ID/Info                            : Picture based subtitle format used on BDs/HD-DVDs
  69. Duration                                 : 1 h 40 min
  70. Bit rate                                 : 29.0 kb/s
  71. Count of elements                        : 2342
  72. Stream size                              : 20.9 MiB (0%)
  73. Language                                 : English
  74. Default                                  : No
  75. Forced                                   : No
  76. Menu
  77. 00:00:00.000                             : Chapter 01
  78. 00:03:41.388                             : Chapter 02
  79. 00:08:08.780                             : Chapter 03
  80. 00:15:38.271                             : Chapter 04
  81. 00:21:15.483                             : Chapter 05
  82. 00:24:03.609                             : Chapter 06
  83. 00:33:32.636                             : Chapter 07
  84. 00:38:48.117                             : Chapter 08
  85. 00:42:51.778                             : Chapter 09
  86. 00:47:48.699                             : Chapter 10
  87. 00:52:50.250                             : Chapter 11
  88. 00:56:07.239                             : Chapter 12
  89. 01:00:40.804                             : Chapter 13
  90. 01:05:21.251                             : Chapter 14
  91. 01:09:02.847                             : Chapter 15
  92. 01:14:59.453                             : Chapter 16
  93. 01:18:13.022                             : Chapter 17
  94. 01:23:28.879                             : Chapter 18
  95. 01:27:40.297                             : Chapter 19
  96. 01:32:13.862                             : Chapter 20
  97. 01:33:52.919                             : Chapter 21
  98. 01:35:02.363                             : Chapter 22
  99. 01:39:19.537                             : Chapter 23
  100. 01:41:26.580                             : Chapter 24
复制代码






                                       
                                       

                                       
                                       
                                       




回复

使用道具 举报

蓝光币
43
发表于 2021-10-13 11:11:34 | 显示全部楼层
楼主发贴辛苦了,谢谢楼主分享!我觉得蓝光电影网是注册对了!
回复 支持 反对

使用道具 举报

懒得打字嘛,点击右侧快捷回复 【右侧内容,后台自定义】
您需要登录后才可以回帖 登录 | 立即加入

本版积分规则

Archiver|小黑屋| 蓝光电影网 |网站地图

Copyright © 2021 Comsenz Inc. Powered by 蓝光电影网

蓝光电影网

本站内容由用户自主分享和转载自互联网,转载目的在于传递更多信息,并不代表本网赞同其观点和对其真实性负责。

如有侵权、违反国家法律政策行为,请联系我们,我们会第一时间及时清除和处理!

举报反馈邮箱:[email protected]

快速回复 返回顶部 返回列表