找回密码

蓝光电影网

查看: 209|回复: 1

[动作] 抢劫犯 The.Crew.2015.FRENCH.1080p.BluRay.x264.DD5.1-TayTO 8.39GB

[复制链接]
蓝光币
519
发表于 2021-10-13 11:28:12 | 显示全部楼层 |阅读模式


◎译  名 抢劫犯/The Crew/重装匪帮
◎片  名 Braqueurs
◎年  代 2015
◎产  地 法国
◎类  别 行动
◎语  言 法语
◎上映日期 2015-10-07(韩国釜山电影节) / 2016-05-04(法国)
◎豆瓣评分 6.3/10 from 213 users
◎豆瓣链接 https://movie.douban.com/subject/26325268/
◎片  长 81分钟
◎导  演 朱利安·勒克莱克 Julien Leclercq
◎编  剧 朱利安·勒克莱克 Julien Leclercq
◎主  演 塞米·鲍亚吉拉 Sami Bouajila
       纪尧姆·谷伊 Guillaume Gouix
       阿丽斯·德·朗克桑 Alice de Lencquesaing
       拉巴·纳伊·乌费拉 Rabah Nait Oufella
◎标  签 犯罪 | 法国 | 行动 | 枪战 | 法国电影 | 2016 | 实在 | 蓝光
◎简  介


  几名差人抢劫了毒贩的赃物,本想做“盗亦有道”的侠盗,不意深陷紊乱,终极不能不为自己的行为支出价格。
  1. Video
  2. ID                                       : 1
  3. Format                                   : AVC
  4. Format/Info                              : Advanced Video Codec
  5. Format profile                           : [email protected]
  6. Format settings                          : CABAC / 5 Ref Frames
  7. Format settings, CABAC                   : Yes
  8. Format settings, Reference frames        : 5 frames
  9. Codec ID                                 : V_MPEG4/ISO/AVC
  10. Duration                                 : 1 h 20 min
  11. Bit rate                                 : 13.8 Mb/s
  12. Width                                    : 1 920 pixels
  13. Height                                   : 804 pixels
  14. Display aspect ratio                     : 2.40:1
  15. Frame rate mode                          : Constant
  16. Frame rate                               : 24.000 FPS
  17. Color space                              : YUV
  18. Chroma subsampling                       : 4:2:0
  19. Bit depth                                : 8 bits
  20. Scan type                                : Progressive
  21. Bits/(Pixel*Frame)                       : 0.373
  22. Stream size                              : 7.81 GiB (93%)
  23. Writing library                          : x264 core 164 r3075 --> UHD
  24. Encoding settings                        : cabac=1 / ref=5 / deblock=1:-3:-3 / analyse=0x3:0x133 / me=umh / subme=10 / psy=1 / psy_rd=1.05:0.00 / mixed_ref=1 / me_range=32 / chroma_me=1 / trellis=2 / 8x8dct=1 / cqm=0 / deadzone=21,11 / fast_pskip=0 / chroma_qp_offset=-2 / threads=6 / lookahead_threads=1 / sliced_threads=0 / nr=0 / decimate=0 / interlaced=0 / bluray_compat=0 / constrained_intra=0 / bframes=12 / b_pyramid=2 / b_adapt=2 / b_bias=0 / direct=1 / weightb=1 / open_gop=0 / weightp=2 / keyint=250 / keyint_min=23 / scenecut=40 / intra_refresh=0 / rc_lookahead=60 / rc=crf / mbtree=0 / crf=16.3 / qcomp=0.60 / qpmin=0 / qpmax=69 / qpstep=4 / vbv_maxrate=62500 / vbv_bufsize=78125 / crf_max=0.0 / nal_hrd=none / filler=0 / ip_ratio=1.30 / pb_ratio=1.20 / aq=3:0.78
  25. Language                                 : French
  26. Default                                  : Yes
  27. Forced                                   : No
  28. Color range                              : Limited
  29. Color primaries                          : BT.709
  30. Transfer characteristics                 : BT.709
  31. Matrix coefficients                      : BT.709
  32. Audio
  33. ID                                       : 2
  34. Format                                   : E-AC-3
  35. Format/Info                              : Enhanced AC-3
  36. Commercial name                          : Dolby Digital Plus
  37. Codec ID                                 : A_EAC3
  38. Duration                                 : 1 h 20 min
  39. Bit rate mode                            : Constant
  40. Bit rate                                 : 1 024 kb/s
  41. Channel(s)                               : 6 channels
  42. Channel layout                           : L R C LFE Ls Rs
  43. Sampling rate                            : 48.0 kHz
  44. Frame rate                               : 31.250 FPS (1536 SPF)
  45. Compression mode                         : Lossy
  46. Stream size                              : 592 MiB (7%)
  47. Language                                 : French
  48. Service kind                             : Complete Main
  49. Default                                  : Yes
  50. Forced                                   : No
  51. Text #1
  52. ID                                       : 3
  53. Format                                   : UTF-8
  54. Codec ID                                 : S_TEXT/UTF8
  55. Codec ID/Info                            : UTF-8 Plain Text
  56. Duration                                 : 1 h 19 min
  57. Bit rate                                 : 26 b/s
  58. Count of elements                        : 640
  59. Stream size                              : 15.6 KiB (0%)
  60. Language                                 : English
  61. Default                                  : No
  62. Forced                                   : No
  63. Text #2
  64. ID                                       : 4
  65. Format                                   : PGS
  66. Muxing mode                              : zlib
  67. Codec ID                                 : S_HDMV/PGS
  68. Codec ID/Info                            : Picture based subtitle format used on BDs/HD-DVDs
  69. Duration                                 : 1 h 16 min
  70. Bit rate                                 : 20.9 kb/s
  71. Count of elements                        : 1550
  72. Stream size                              : 11.5 MiB (0%)
  73. Language                                 : French
  74. Default                                  : No
  75. Forced                                   : No
  76. Text #3
  77. ID                                       : 5
  78. Format                                   : UTF-8
  79. Codec ID                                 : S_TEXT/UTF8
  80. Codec ID/Info                            : UTF-8 Plain Text
  81. Duration                                 : 1 h 16 min
  82. Bit rate                                 : 33 b/s
  83. Count of elements                        : 676
  84. Stream size                              : 18.8 KiB (0%)
  85. Language                                 : Romanian
  86. Default                                  : No
  87. Forced                                   : No
  88. Menu
  89. 00:00:00.000                             : :Chapter 01
  90. 00:05:26.458                             : :Chapter 02
  91. 00:12:31.042                             : :Chapter 03
  92. 00:17:55.083                             : :Chapter 04
  93. 00:25:41.458                             : :Chapter 05
  94. 00:30:13.708                             : :Chapter 06
  95. 00:40:29.125                             : :Chapter 07
  96. 00:47:19.792                             : :Chapter 08
  97. 00:54:03.458                             : :Chapter 09
  98. 00:59:32.500                             : :Chapter 10
  99. 01:08:16.292                             : :Chapter 11
  100. 01:15:11.375                             : :Chapter 12
  101. 01:20:47.708                             : :Chapter 13
复制代码







                                       
                                       

                                       
                                       
                                       




回复

使用道具 举报

蓝光币
13
发表于 2021-10-13 16:52:00 | 显示全部楼层
怎么获得蓝光币啊
回复 支持 反对

使用道具 举报

懒得打字嘛,点击右侧快捷回复 【右侧内容,后台自定义】
您需要登录后才可以回帖 登录 | 立即加入

本版积分规则

Archiver|小黑屋| 蓝光电影网 |网站地图

Copyright © 2021 Comsenz Inc. Powered by 蓝光电影网

蓝光电影网

本站内容由用户自主分享和转载自互联网,转载目的在于传递更多信息,并不代表本网赞同其观点和对其真实性负责。

如有侵权、违反国家法律政策行为,请联系我们,我们会第一时间及时清除和处理!

举报反馈邮箱:[email protected]

快速回复 返回顶部 返回列表