找回密码

蓝光电影网

查看: 132|回复: 1

[剧情] 允许 The.Story.of.a.ThreeDay.Pass.1968.1080p.BluRay.x264.FLAC.1.0-HANDJOB 7.11GB

[复制链接]
蓝光币
519
发表于 2021-10-13 13:35:56 | 显示全部楼层 |阅读模式


◎译  名 答应/Permission, La/The Story of a Three-Day Pass
◎片  名 La Permission
◎年  代 1968
◎产  地 法国
◎类  别 剧情 / 恋爱
◎语  言 法语
◎上映日期 1968
◎豆瓣评分 /10 from 0 users
◎豆瓣链接 https://movie.douban.com/subject/3587373/
◎片  长 87 分钟
◎导  演 马文·范·皮伯斯 Melvin Van Peebles
◎编  剧 马文·范·皮伯斯 Melvin Van Peebles
◎主  演 哈里·贝尔德 Harry Baird
       妮科尔·贝尔热 Nicole Berger
       Pierre Doris Pierre Doris
       克里斯蒂安·马兰 Christian Marin
◎标  签 法国 | CC | 恋爱 | Melvin_Van_Peebles | 黑人 | 马文·范·皮布尔斯 | 美国电影 | 种族
◎简  介


  A tale of innocence abroad, with racial overtones. Turner is a Black American, stationed at an air base in France. His captain thinks Turner's a good Negro, obedient, cheerful, and frightened, so he gives him a promotion and a three-day pass. On the first night, at a club, he meets Miriam, a White Parisian shop clerk. They dance, talk, and fantasize about each other. He's amazed when she agrees to spend the weekend with him at a Normandy beach hotel; in fact, he guesses she's a prostitute. She's not, they go; it's off season, they have their pick of rooms, and romance ensues. Then, racial misunderstanding and real prejudice complicate the weekend and its aftermath.—
  1. Video
  2. ID                                       : 1
  3. Format                                   : AVC
  4. Format/Info                              : Advanced Video Codec
  5. Format profile                           : [email protected]
  6. Format settings                          : CABAC / 4 Ref Frames
  7. Format settings, CABAC                   : Yes
  8. Format settings, Reference frames        : 4 frames
  9. Codec ID                                 : V_MPEG4/ISO/AVC
  10. Duration                                 : 1 h 28 min
  11. Bit rate                                 : 11.2 Mb/s
  12. Width                                    : 1 800 pixels
  13. Height                                   : 1 080 pixels
  14. Display aspect ratio                     : 5:3
  15. Frame rate mode                          : Constant
  16. Frame rate                               : 23.976 (24000/1001/189150) FPS
  17. Color space                              : YUV
  18. Chroma subsampling                       : 4:2:0
  19. Bit depth                                : 8 bits
  20. Scan type                                : Progressive
  21. Bits/(Pixel*Frame)                       : 0.241
  22. Stream size                              : 6.92 GiB (97%)
  23. Writing library                          : x264 core 157 r2935 545de2f
  24. Encoding settings                        : cabac=1 / ref=4 / deblock=1:-3:-3 / analyse=0x3:0x133 / me=umh / subme=10 / psy=1 / psy_rd=1.00:0.00 / mixed_ref=1 / me_range=32 / chroma_me=1 / trellis=2 / 8x8dct=1 / cqm=0 / deadzone=21,11 / fast_pskip=0 / chroma_qp_offset=-2 / threads=18 / lookahead_threads=4 / sliced_threads=0 / nr=0 / decimate=0 / interlaced=0 / bluray_compat=0 / constrained_intra=0 / bframes=16 / b_pyramid=2 / b_adapt=2 / b_bias=0 / direct=3 / weightb=1 / open_gop=0 / weightp=1 / keyint=240 / keyint_min=24 / scenecut=40 / intra_refresh=0 / rc_lookahead=60 / rc=crf / mbtree=0 / crf=23.8 / qcomp=0.60 / qpmin=0 / qpmax=69 / qpstep=4 / vbv_maxrate=62500 / vbv_bufsize=78125 / crf_max=0.0 / nal_hrd=none / filler=0 / ip_ratio=1.40 / pb_ratio=1.30 / aq=2:1.00
  25. Default                                  : Yes
  26. Forced                                   : No
  27. Color range                              : Limited
  28. Color primaries                          : BT.709
  29. Transfer characteristics                 : BT.709
  30. Matrix coefficients                      : BT.709
  31. Audio
  32. ID                                       : 2
  33. Format                                   : FLAC
  34. Format/Info                              : Free Lossless Audio Codec
  35. Codec ID                                 : A_FLAC
  36. Duration                                 : 1 h 28 min
  37. Bit rate mode                            : Variable
  38. Bit rate                                 : 306 kb/s
  39. Channel(s)                               : 1 channel
  40. Sampling rate                            : 48.0 kHz
  41. Frame rate                               : 11.719 FPS (4096 SPF)
  42. Bit depth                                : 16 bits
  43. Compression mode                         : Lossless
  44. Stream size                              : 193 MiB (3%)
  45. Writing library                          : libFLAC 1.2.1 (UTC 2007-09-17)
  46. Language                                 : English
  47. Default                                  : Yes
  48. Forced                                   : No
  49. Text #1
  50. ID                                       : 3
  51. Format                                   : UTF-8
  52. Codec ID                                 : S_TEXT/UTF8
  53. Codec ID/Info                            : UTF-8 Plain Text
  54. Duration                                 : 1 h 14 min
  55. Bit rate                                 : 8 b/s
  56. Count of elements                        : 168
  57. Stream size                              : 4.44 KiB (0%)
  58. Title                                    : for French spoken parts
  59. Language                                 : English
  60. Default                                  : Yes
  61. Forced                                   : No
  62. Text #2
  63. ID                                       : 4
  64. Format                                   : UTF-8
  65. Codec ID                                 : S_TEXT/UTF8
  66. Codec ID/Info                            : UTF-8 Plain Text
  67. Duration                                 : 1 h 23 min
  68. Bit rate                                 : 32 b/s
  69. Count of elements                        : 670
  70. Stream size                              : 19.6 KiB (0%)
  71. Language                                 : English
  72. Default                                  : No
  73. Forced                                   : No
  74. Text #3
  75. ID                                       : 5
  76. Format                                   : UTF-8
  77. Codec ID                                 : S_TEXT/UTF8
  78. Codec ID/Info                            : UTF-8 Plain Text
  79. Duration                                 : 1 h 23 min
  80. Bit rate                                 : 36 b/s
  81. Count of elements                        : 771
  82. Stream size                              : 22.2 KiB (0%)
  83. Title                                    : SDH
  84. Language                                 : English
  85. Default                                  : No
  86. Forced                                   : No
  87. Menu
  88. 00:00:00.000                             : :Chapter 1
  89. 00:02:37.157                             : :Chapter 2
  90. 00:08:38.560                             : :Chapter 3
  91. 00:16:12.430                             : :Chapter 4
  92. 00:21:00.468                             : :Chapter 5
  93. 00:25:26.859                             : :Chapter 6
  94. 00:31:48.407                             : :Chapter 7
  95. 00:38:57.961                             : :Chapter 8
  96. 00:44:31.586                             : :Chapter 9
  97. 00:49:29.884                             : :Chapter 10
  98. 00:55:00.130                             : :Chapter 11
  99. 00:59:35.238                             : :Chapter 12
  100. 01:06:33.031                             : :Chapter 13
  101. 01:13:07.842                             : :Chapter 14
  102. 01:17:55.838                             : :Chapter 15
复制代码






                                       
                                       

                                       
                                       
                                       




回复

使用道具 举报

蓝光币
2
发表于 2021-10-14 08:18:39 | 显示全部楼层
楼主发贴辛苦了,谢谢楼主分享!我觉得蓝光电影网是注册对了!
回复 支持 反对

使用道具 举报

懒得打字嘛,点击右侧快捷回复 【右侧内容,后台自定义】
您需要登录后才可以回帖 登录 | 立即加入

本版积分规则

Archiver|小黑屋| 蓝光电影网 |网站地图

Copyright © 2021 Comsenz Inc. Powered by 蓝光电影网

蓝光电影网

本站内容由用户自主分享和转载自互联网,转载目的在于传递更多信息,并不代表本网赞同其观点和对其真实性负责。

如有侵权、违反国家法律政策行为,请联系我们,我们会第一时间及时清除和处理!

举报反馈邮箱:[email protected]

快速回复 返回顶部 返回列表