找回密码

蓝光电影网

查看: 304|回复: 5

[10bit.HDR] 绿衣骑士/绿骑士 The.Green.Knight.2021.2160p.UHD.BluRay.x265.10bit.HDR.TrueHD.7.1.Atmos-B0MBARDiERS 12.42GB

[复制链接]
蓝光币
511
发表于 3 天前 | 显示全部楼层 |阅读模式


◎译  名 绿衣骑士/绿骑士(台)
◎片  名 The Green Knight
◎年  代 2021
◎产  地 爱尔兰,加拿大,美国,英国
◎类  别 剧情 / 奇异 / 冒险
◎语  言 英语
◎上映日期 2021-07-30(美国)
◎豆瓣评分 6.5/10 from 10163 users
◎豆瓣链接 https://movie.douban.com/subject/30372022/
◎片  长 130分钟
◎导  演 大卫·洛维 David Lowery
◎编  剧 大卫·洛维 David Lowery
◎主  演 戴夫·帕特尔 Dev Patel
       艾丽西亚·维坎德 Alicia Vikander
       萨莉塔·乔德霍里 Sarita Choudhury
       拉尔夫·伊内森 Ralph Ineson
       西恩·哈里斯 Sean Harris
       乔尔·埃哲顿 Joel Edgerton
       巴里·基奥恩 Barry Keoghan
       艾琳·凯利曼 Erin Kellyman
       雅典娜·弗里泽尔 Atheena Frizzell
       尼塔·米什拉 Nita Mishra
       塔拉·麦克唐纳 Tara McDonagh
       凯特·迪基 Kate Dickie
       阿奈·里佐 Ana?s Rizzo
       克里斯·麦克哈利姆 Chris McHallem
       乔·安德森 Joe Anderson
       Brendan Conroy Brendan Conroy
       唐查·克劳利 Donncha Crowley
       安东尼·莫里斯 Anthony Morris
       诺埃尔·布朗 Noelle Brown
◎标  签 奇异 | 美国 | 2021 | 剧情 | A24 | 惊悚 | 欧美 | 古装
◎简  介


  影片按照故事《高文爵士与绿衣骑士》改编,报告亚瑟王在自己的宫庭里举行宴会。一位绿衣骑士前来向圆桌骑士应战:有谁敢就地砍下他的头,并让他一年后回敬一斧。高文接管应战,砍下了绿衣骑士的头。那具仍然在世的躯体捡起头颅,回到绿色的教堂。一年今后,高文如约去寻觅绿衣骑士。

  1. Video
  2. ID : 1
  3. Format : HEVC
  4. Format/Info : High Efficiency Video Coding
  5. Format profile : Main [email protected]@High
  6. HDR format : SMPTE ST 2086, HDR10 compatible
  7. Codec ID : V_MPEGH/ISO/HEVC
  8. Duration : 2 h 9 min
  9. Bit rate : 9 499 kb/s
  10. Width : 3 840 pixels
  11. Height : 2 076 pixels
  12. Display aspect ratio : 1.85:1
  13. Frame rate mode : Constant
  14. Frame rate : 23.976 (24000/1001) FPS
  15. Color space : YUV
  16. Chroma subsampling : 4:2:0 (Type 2)
  17. Bit depth : 10 bits
  18. Bits/(Pixel*Frame) : 0.050
  19. Stream size : 8.61 GiB (69%)
  20. Writing library : x265 3.5+16-7955046e7:[Windows][GCC 11.2.0][64 bit] 10bit
  21. Encoding settings : cpuid=1176575 / frame-threads=6 / numa-pools=36 / wpp / no-pmode / no-pme / no-psnr / no-ssim / log-level=2 / input-csp=1 / input-res=3840x2076 / interlace=0 / total-frames=186696 / level-idc=51 / high-tier=1 / uhd-bd=0 / ref=4 / no-allow-non-conformance / repeat-headers / annexb / aud / no-eob / no-eos / hrd / info / hash=0 / no-temporal-layers / open-gop / min-keyint=23 / keyint=250 / gop-lookahead=0 / bframes=4 / b-adapt=2 / b-pyramid / bframe-bias=0 / rc-lookahead=25 / lookahead-slices=4 / scenecut=40 / no-hist-scenecut / radl=0 / no-splice / no-intra-refresh / ctu=64 / min-cu-size=8 / rect / no-amp / max-tu-size=32 / tu-inter-depth=1 / tu-intra-depth=1 / limit-tu=0 / rdoq-level=2 / dynamic-rd=0.00 / no-ssim-rd / signhide / no-tskip / nr-intra=0 / nr-inter=0 / no-constrained-intra / strong-intra-smoothing / max-merge=3 / limit-refs=3 / limit-modes / me=3 / subme=3 / merange=57 / temporal-mvp / no-frame-dup / no-hme / weightp / no-weightb / no-analyze-src-pics / deblock=-3:-3 / no-sao / no-sao-non-deblock / rd=4 / selective-sao=0 / no-early-skip / rskip / no-fast-intra / no-tskip-fast / no-cu-lossless / no-b-intra / no-splitrd-skip / rdpenalty=0 / psy-rd=2.00 / psy-rdoq=1.00 / no-rd-refine / no-lossless / cbqpoffs=0 / crqpoffs=0 / rc=crf / crf=14.0 / qcomp=0.60 / qpstep=4 / stats-write=0 / stats-read=0 / vbv-maxrate=160000 / vbv-bufsize=160000 / vbv-init=0.9 / min-vbv-fullness=50.0 / max-vbv-fullness=80.0 / crf-max=0.0 / crf-min=0.0 / ipratio=1.40 / pbratio=1.30 / aq-mode=2 / aq-strength=1.00 / cutree / zone-count=0 / no-strict-cbr / qg-size=32 / no-rc-grain / qpmax=69 / qpmin=0 / no-const-vbv / sar=1 / overscan=0 / videoformat=5 / range=0 / colorprim=9 / transfer=16 / colormatrix=9 / chromaloc=1 / chromaloc-top=2 / chromaloc-bottom=2 / display-window=0 / master-display=G(8500,39850)B(6550,2300)R(35400,14600)WP(15635,16450)L(10000000,10) / cll=1000,588 / min-luma=0 / max-luma=1023 / log2-max-poc-lsb=8 / vui-timing-info / vui-hrd-info / slices=1 / no-opt-qp-pps / no-opt-ref-list-length-pps / no-multi-pass-opt-rps / scenecut-bias=0.05 / hist-threshold=0.03 / no-opt-cu-delta-qp / no-aq-motion / hdr10 / hdr10-opt / no-dhdr10-opt / no-idr-recovery-sei / analysis-reuse-level=0 / analysis-save-reuse-level=0 / analysis-load-reuse-level=0 / scale-factor=0 / refine-intra=0 / refine-inter=0 / refine-mv=1 / refine-ctu-distortion=0 / no-limit-sao / ctu-info=0 / no-lowpass-dct / refine-analysis-type=0 / copy-pic=1 / max-ausize-factor=1.0 / no-dynamic-refine / no-single-sei / no-hevc-aq / no-svt / no-field / qp-adaptation-range=1.00 / scenecut-aware-qp=0conformance-window-offsets / right=0 / bottom=0 / decoder-max-rate=0 / no-vbv-live-multi-pass
  22. Default : Yes
  23. Forced : No
  24. Color range : Limited
  25. Color primaries : BT.2020
  26. Transfer characteristics : PQ
  27. Matrix coefficients : BT.2020 non-constant
  28. Mastering display color primaries : BT.2020
  29. Mastering display luminance : min: 0.0010 cd/m2, max: 1000 cd/m2
  30. Maximum Content Light Level : 1000 cd/m2
  31. Maximum Frame-Average Light Level : 588 cd/m2

  32. Audio #1
  33. ID : 2
  34. Format : MLP FBA 16-ch
  35. Format/Info : Meridian Lossless Packing FBA with 16-channel presentation
  36. Commercial name : Dolby TrueHD with Dolby Atmos
  37. Codec ID : A_TRUEHD
  38. Duration : 2 h 9 min
  39. Bit rate mode : Variable
  40. Bit rate : 3 476 kb/s
  41. Maximum bit rate : 5 781 kb/s
  42. Channel(s) : 8 channels
  43. Channel layout : L R C LFE Ls Rs Lb Rb
  44. Sampling rate : 48.0 kHz
  45. Frame rate : 1 200.000 FPS (40 SPF)
  46. Compression mode : Lossless
  47. Stream size : 3.15 GiB (25%)
  48. Language : English
  49. Default : Yes
  50. Forced : No
  51. Number of dynamic objects : 11
  52. Bed channel count : 1 channel
  53. Bed channel configuration : LFE

  54. Audio #2
  55. ID : 3
  56. Format : AC-3
  57. Format/Info : Audio Coding 3
  58. Commercial name : Dolby Digital
  59. Format settings : Dolby Surround EX
  60. Codec ID : A_AC3
  61. Duration : 2 h 9 min
  62. Bit rate mode : Constant
  63. Bit rate : 640 kb/s
  64. Channel(s) : 6 channels
  65. Channel layout : L R C LFE Ls Rs
  66. Sampling rate : 48.0 kHz
  67. Frame rate : 31.250 FPS (1536 SPF)
  68. Compression mode : Lossy
  69. Stream size : 594 MiB (5%)
  70. Language : English
  71. Service kind : Complete Main
  72. Default : Yes
  73. Forced : No

  74. Text #1
  75. ID : 4
  76. Format : PGS
  77. Muxing mode : zlib
  78. Codec ID : S_HDMV/PGS
  79. Codec ID/Info : Picture based subtitle format used on BDs/HD-DVDs
  80. Duration : 2 h 8 min
  81. Bit rate : 19.8 kb/s
  82. Count of elements : 2374
  83. Stream size : 18.3 MiB (0%)
  84. Title : English SDH
  85. Language : English
  86. Default : No
  87. Forced : No

  88. Text #2
  89. ID : 5
  90. Format : PGS
  91. Muxing mode : zlib
  92. Codec ID : S_HDMV/PGS
  93. Codec ID/Info : Picture based subtitle format used on BDs/HD-DVDs
  94. Duration : 2 h 9 min
  95. Bit rate : 12.9 kb/s
  96. Count of elements : 1506
  97. Stream size : 11.9 MiB (0%)
  98. Title : Spanish
  99. Language : Spanish
  100. Default : No
  101. Forced : No

  102. Menu
  103. 00:00:00.000 : en:Chapter 01
  104. 00:06:54.956 : en:Chapter 02
  105. 00:15:04.445 : en:Chapter 03
  106. 00:25:13.220 : en:Chapter 04
  107. 00:32:26.695 : en:Chapter 05
  108. 00:41:46.504 : en:Chapter 06
  109. 00:48:36.539 : en:Chapter 07
  110. 00:54:26.096 : en:Chapter 08
  111. 01:02:32.290 : en:Chapter 09
  112. 01:09:30.917 : en:Chapter 10
  113. 01:14:42.978 : en:Chapter 11
  114. 01:22:58.974 : en:Chapter 12
  115. 01:30:42.145 : en:Chapter 13
  116. 01:37:10.533 : en:Chapter 14
  117. 01:48:51.692 : en:Chapter 15
  118. 02:00:00.485 : en:Chapter 16
  119. 02:09:46.529 : en:Chapter 17
复制代码




                                       
                                       

                                       
                                       
                                       




回复

使用道具 举报

蓝光币
158
发表于 前天 08:42 | 显示全部楼层
楼主发贴辛苦了,谢谢楼主分享!我觉得蓝光电影网是注册对了!
回复 支持 反对

使用道具 举报

蓝光币
222
发表于 前天 09:05 | 显示全部楼层

楼主太厉害了!楼主,电影应该很好看我觉得蓝光电影网真是个好地方!
回复 支持 反对

使用道具 举报

蓝光币
457
发表于 前天 11:55 | 显示全部楼层

这东西我收了!谢谢楼主!蓝光电影网真好!
回复 支持 反对

使用道具 举报

蓝光币
4
发表于 前天 12:40 | 显示全部楼层
这东西我收了!谢谢楼主!蓝光电影网真好!!!!
回复 支持 反对

使用道具 举报

蓝光币
16
发表于 前天 13:36 | 显示全部楼层
顶顶顶顶顶顶
回复 支持 反对

使用道具 举报

懒得打字嘛,点击右侧快捷回复 【右侧内容,后台自定义】
您需要登录后才可以回帖 登录 | 立即加入

本版积分规则

Archiver|小黑屋| 蓝光电影网 |网站地图

Copyright © 2021 Comsenz Inc. Powered by 蓝光电影网

蓝光电影网

本站内容由用户自主分享和转载自互联网,转载目的在于传递更多信息,并不代表本网赞同其观点和对其真实性负责。

如有侵权、违反国家法律政策行为,请联系我们,我们会第一时间及时清除和处理!

举报反馈邮箱:[email protected]

快速回复 返回顶部 返回列表