找回密码

蓝光电影网

查看: 231|回复: 3

[10bit.HDR] 速度与激情9/F9狂野时速 F9.The.Fast.Saga.2021.DC.2160p.UHD.BluRay.X265.10bit.HDR10Plus.TrueHD.7.1.Atmos-SURCODE 31.08GB

[复制链接]
蓝光币
511
发表于 3 天前 | 显示全部楼层 |阅读模式


◎译  名 速度与豪情9/F9狂野时速(港)/Fast & Furious 9/FF9/狂野时速9/玩命关头9(台)/速激9
◎片  名 F9: The Fast Saga
◎年  代 2021
◎产  地 美国,泰国,加拿大
◎类  别 行动 / 犯罪
◎语  言 英语
◎上映日期 2021-05-19(韩国) / 2021-05-21(中国大陆) / 2021-06-25(美国)
◎豆瓣评分 5.2/10 from 163634 users
◎豆瓣链接 https://movie.douban.com/subject/25728006/
◎片  长 142分钟(中国大陆)
◎导  演 林诣彬 Justin Lin
◎编  剧 丹·凯西 Daniel Casey / 盖瑞·斯科特·汤普森 Gary Scott Thompson / 克里斯·摩根 Chris Morgan
◎主  演 范·迪塞尔 Vin Diesel
       约翰·塞纳 John Cena
       米歇尔·罗德里格兹 Michelle Rodriguez
       乔丹娜·布鲁斯特 Jordana Brewster
       泰瑞斯·吉布森 Tyrese Gibson
       卢达·克里斯 Ludacris
       查理兹·塞隆 Charlize Theron
       海伦·米伦 Helen Mirren
       姜成镐 Sung Kang
       娜塔莉·伊曼纽尔 Nathalie Emmanuel
       迈克尔·鲁克 Michael Rooker
       卢卡斯·布莱克 Lucas Black
       杜俊纬 Jason Tobin
       卡迪·B Cardi B
       吉姆·帕拉克 Jim Parrack
       芬恩·科尔 Finn Cole
       安珀·西耶娜 Amber Sienna
       马丁·福特 Martyn Ford
       艾拉·沃克 Ella Walker
       泽井杏奈 Anna Sawai
       图厄·埃尔斯特德·拉斯姆森 Thue Ersted Rasmussen
       米拉吉·格尔比克 Miraj Grbic
       吉米·斯达 Jimmy Star
       莱克斯·艾尔 Lex Elle
       温尼·贝内特 Vinnie Bennett
       马克·克雷尼克 Mark Krenik
       杰森·斯坦森 Jason Statham
       库尔特·拉塞尔 Kurt Russell
       谢伊·惠格姆 Shea Whigham
       弗朗西斯·纳干诺 Francis Ngannou
◎标  签 行动 | 美国 | 飙车 | 犯罪 | 2021 | 赛车 | 跑车 | 科幻
◎简  介


  “唐老迈”多姆·托莱多(范·迪塞尔 饰)与莱蒂(米歇尔·罗德里格兹 饰)和他的儿子小布莱恩,过上了阔别纷扰的安静生活。但是他们也晓得,安宁之下总潜藏着危机。这一次,为了庇护他所爱的人,唐老迈不能不直面曩昔。他和伙伴们面临的是一场足以引发天下动乱的诡计,以及一个前所未遇的一流杀手和高能车手。而这个名叫雅各布(约翰·塞纳 饰)的人,恰巧是多姆遗落在外的亲弟弟。
◎获奖情况
  第7届豆瓣电影年度榜单 ?(2020)
  最值得期待的外语电影(提名)
  
  第6届豆瓣电影年度榜单 ?(2019)
  最值得期待的外语电影(提名)

  1. Video
  2. ID : 1
  3. Format : HEVC
  4. Format/Info : High Efficiency Video Coding
  5. Format profile : Main [email protected]@High
  6. HDR format : SMPTE ST 2094 App 4, Version 1, HDR10+ Profile B compatible
  7. Codec ID : V_MPEGH/ISO/HEVC
  8. Duration : 2 h 29 min
  9. Bit rate : 25.7 Mb/s
  10. Width : 3 840 pixels
  11. Height : 2 160 pixels
  12. Display aspect ratio : 16:9
  13. Frame rate mode : Constant
  14. Frame rate : 23.976 (24000/1001) FPS
  15. Color space : YUV
  16. Chroma subsampling : 4:2:0 (Type 2)
  17. Bit depth : 10 bits
  18. Bits/(Pixel*Frame) : 0.129
  19. Stream size : 26.9 GiB (87%)
  20. Writing library : x265 3.5+13-4c6880de4:[Windows][MSVC 1929][64 bit] 10bit
  21. Encoding settings : cpuid=1111039 / frame-threads=6 / numa-pools=32 / wpp / no-pmode / no-pme / no-psnr / no-ssim / log-level=2 / input-csp=1 / input-res=3840x2160 / interlace=0 / total-frames=215676 / level-idc=51 / high-tier=1 / uhd-bd=0 / ref=4 / no-allow-non-conformance / repeat-headers / annexb / aud / no-eob / no-eos / hrd / info / hash=0 / no-temporal-layers / no-open-gop / min-keyint=23 / keyint=250 / gop-lookahead=0 / bframes=4 / b-adapt=2 / b-pyramid / bframe-bias=0 / rc-lookahead=25 / lookahead-slices=4 / scenecut=40 / no-hist-scenecut / radl=0 / no-splice / no-intra-refresh / ctu=64 / min-cu-size=8 / rect / no-amp / max-tu-size=32 / tu-inter-depth=1 / tu-intra-depth=1 / limit-tu=0 / rdoq-level=2 / dynamic-rd=0.00 / no-ssim-rd / signhide / no-tskip / nr-intra=0 / nr-inter=0 / no-constrained-intra / no-strong-intra-smoothing / max-merge=3 / limit-refs=3 / limit-modes / me=3 / subme=3 / merange=57 / temporal-mvp / no-frame-dup / no-hme / weightp / no-weightb / no-analyze-src-pics / deblock=-3:-3 / no-sao / no-sao-non-deblock / rd=4 / selective-sao=0 / no-early-skip / rskip / no-fast-intra / no-tskip-fast / no-cu-lossless / no-b-intra / no-splitrd-skip / rdpenalty=0 / psy-rd=2.00 / psy-rdoq=1.00 / no-rd-refine / no-lossless / cbqpoffs=0 / crqpoffs=0 / rc=crf / crf=14.0 / qcomp=0.60 / qpstep=4 / stats-write=0 / stats-read=0 / vbv-maxrate=160000 / vbv-bufsize=160000 / vbv-init=0.9 / min-vbv-fullness=50.0 / max-vbv-fullness=80.0 / crf-max=0.0 / crf-min=0.0 / ipratio=1.40 / pbratio=1.30 / aq-mode=2 / aq-strength=1.00 / cutree / zone-count=0 / no-strict-cbr / qg-size=32 / no-rc-grain / qpmax=69 / qpmin=0 / no-const-vbv / sar=1 / overscan=0 / videoformat=5 / range=0 / colorprim=9 / transfer=16 / colormatrix=9 / chromaloc=1 / chromaloc-top=2 / chromaloc-bottom=2 / display-window=0 / master-display=G(13250,34500)B(7500,3000)R(34000,16000)WP(15635,16450)L(10000000,01) / cll=1000,696 / min-luma=0 / max-luma=1023 / log2-max-poc-lsb=8 / vui-timing-info / vui-hrd-info / slices=1 / no-opt-qp-pps / no-opt-ref-list-length-pps / no-multi-pass-opt-rps / scenecut-bias=0.05 / hist-threshold=0.03 / no-opt-cu-delta-qp / no-aq-motion / hdr10 / hdr10-opt / dhdr10-opt / no-idr-recovery-sei / analysis-reuse-level=0 / analysis-save-reuse-level=0 / analysis-load-reuse-level=0 / scale-factor=0 / refine-intra=0 / refine-inter=0 / refine-mv=1 / refine-ctu-distortion=0 / no-limit-sao / ctu-info=0 / no-lowpass-dct / refine-analysis-type=0 / copy-pic=1 / max-ausize-factor=1.0 / no-dynamic-refine / no-single-sei / no-hevc-aq / no-svt / no-field / qp-adaptation-range=1.00 / scenecut-aware-qp=0conformance-window-offsets / right=0 / bottom=0 / decoder-max-rate=0 / no-vbv-live-multi-pass
  22. Default : Yes
  23. Forced : No
  24. Color range : Limited
  25. Color primaries : BT.2020
  26. Transfer characteristics : PQ
  27. Matrix coefficients : BT.2020 non-constant
  28. Mastering display color primaries : Display P3
  29. Mastering display luminance : min: 0.0001 cd/m2, max: 1000 cd/m2
  30. Maximum Content Light Level : 1000 cd/m2
  31. Maximum Frame-Average Light Level : 696 cd/m2

  32. Audio #1
  33. ID : 2
  34. Format : MLP FBA 16-ch
  35. Format/Info : Meridian Lossless Packing FBA with 16-channel presentation
  36. Commercial name : Dolby TrueHD with Dolby Atmos
  37. Codec ID : A_TRUEHD
  38. Duration : 2 h 29 min
  39. Bit rate mode : Variable
  40. Bit rate : 2 985 kb/s
  41. Maximum bit rate : 4 242 kb/s
  42. Channel(s) : 8 channels
  43. Channel layout : L R C LFE Ls Rs Lb Rb
  44. Sampling rate : 48.0 kHz
  45. Frame rate : 1 200.000 FPS (40 SPF)
  46. Compression mode : Lossless
  47. Stream size : 3.13 GiB (10%)
  48. Title : Surround 7.1
  49. Language : English
  50. Default : Yes
  51. Forced : No
  52. Number of dynamic objects : 11
  53. Bed channel count : 1 channel
  54. Bed channel configuration : LFE

  55. Audio #2
  56. ID : 3
  57. Format : AC-3
  58. Format/Info : Audio Coding 3
  59. Commercial name : Dolby Digital
  60. Codec ID : A_AC3
  61. Duration : 2 h 29 min
  62. Bit rate mode : Constant
  63. Bit rate : 448 kb/s
  64. Channel(s) : 6 channels
  65. Channel layout : L R C LFE Ls Rs
  66. Sampling rate : 48.0 kHz
  67. Frame rate : 31.250 FPS (1536 SPF)
  68. Compression mode : Lossy
  69. Stream size : 480 MiB (2%)
  70. Title : Surround 5.1
  71. Language : English
  72. Service kind : Complete Main
  73. Default : No
  74. Forced : No

  75. Audio #3
  76. ID : 4
  77. Format : AAC LC
  78. Format/Info : Advanced Audio Codec Low Complexity
  79. Codec ID : A_AAC-2
  80. Duration : 2 h 29 min
  81. Bit rate : 110 kb/s
  82. Channel(s) : 2 channels
  83. Channel layout : L R
  84. Sampling rate : 48.0 kHz
  85. Frame rate : 46.875 FPS (1024 SPF)
  86. Compression mode : Lossy
  87. Delay relative to video : 9 ms
  88. Stream size : 117 MiB (0%)
  89. Title : commentary
  90. Language : English
  91. Default : No
  92. Forced : No

  93. Text #1
  94. ID : 5
  95. Format : PGS
  96. Muxing mode : zlib
  97. Codec ID : S_HDMV/PGS
  98. Codec ID/Info : Picture based subtitle format used on BDs/HD-DVDs
  99. Duration : 2 h 23 min
  100. Bit rate : 36.8 kb/s
  101. Count of elements : 4081
  102. Stream size : 37.6 MiB (0%)
  103. Language : English
  104. Default : No
  105. Forced : No

  106. Text #2
  107. ID : 6
  108. Format : PGS
  109. Muxing mode : zlib
  110. Codec ID : S_HDMV/PGS
  111. Codec ID/Info : Picture based subtitle format used on BDs/HD-DVDs
  112. Duration : 2 h 20 min
  113. Bit rate : 65.0 kb/s
  114. Count of elements : 4556
  115. Stream size : 65.5 MiB (0%)
  116. Language : English
  117. Default : No
  118. Forced : No

  119. Text #3
  120. ID : 7
  121. Format : PGS
  122. Muxing mode : zlib
  123. Codec ID : S_HDMV/PGS
  124. Codec ID/Info : Picture based subtitle format used on BDs/HD-DVDs
  125. Duration : 2 h 28 min
  126. Bit rate : 25.4 kb/s
  127. Count of elements : 2659
  128. Stream size : 27.0 MiB (0%)
  129. Language : German
  130. Default : No
  131. Forced : No

  132. Text #4
  133. ID : 8
  134. Format : PGS
  135. Muxing mode : zlib
  136. Codec ID : S_HDMV/PGS
  137. Codec ID/Info : Picture based subtitle format used on BDs/HD-DVDs
  138. Duration : 2 h 29 min
  139. Bit rate : 58.2 kb/s
  140. Count of elements : 4578
  141. Stream size : 62.4 MiB (0%)
  142. Language : German
  143. Default : No
  144. Forced : No

  145. Text #5
  146. ID : 9
  147. Format : PGS
  148. Muxing mode : zlib
  149. Codec ID : S_HDMV/PGS
  150. Codec ID/Info : Picture based subtitle format used on BDs/HD-DVDs
  151. Duration : 2 h 29 min
  152. Bit rate : 594 b/s
  153. Count of elements : 83
  154. Stream size : 653 KiB (0%)
  155. Title : forced
  156. Language : German
  157. Default : No
  158. Forced : No

  159. Menu
  160. 00:00:00.000 : en:Chapter 01
  161. 00:04:47.578 : en:Chapter 02
  162. 00:12:27.705 : en:Chapter 03
  163. 00:21:53.270 : en:Chapter 04
  164. 00:26:43.268 : en:Chapter 05
  165. 00:31:43.234 : en:Chapter 06
  166. 00:35:36.425 : en:Chapter 07
  167. 00:45:33.689 : en:Chapter 08
  168. 00:53:42.761 : en:Chapter 09
  169. 01:01:12.418 : en:Chapter 10
  170. 01:05:24.295 : en:Chapter 11
  171. 01:13:55.472 : en:Chapter 12
  172. 01:25:26.121 : en:Chapter 13
  173. 01:35:27.805 : en:Chapter 14
  174. 01:41:34.129 : en:Chapter 15
  175. 01:47:08.380 : en:Chapter 16
  176. 01:57:42.138 : en:Chapter 17
  177. 02:08:02.091 : en:Chapter 18
  178. 02:12:25.479 : en:Chapter 19
  179. 02:17:20.941 : en:Chapter 20
复制代码




                                       
                                       

                                       
                                       
                                       




回复

使用道具 举报

蓝光币
18
发表于 3 天前 | 显示全部楼层
不知为哈,这部电影一部不如一部...
回复 支持 反对

使用道具 举报

蓝光币
42
发表于 前天 09:26 | 显示全部楼层
感谢楼主分享,真心给个赞!
回复 支持 反对

使用道具 举报

蓝光币
40
发表于 前天 21:39 | 显示全部楼层
楼主发贴辛苦了,谢谢楼主分享!我觉得蓝光电影网是注册对了!
回复 支持 反对

使用道具 举报

懒得打字嘛,点击右侧快捷回复 【右侧内容,后台自定义】
您需要登录后才可以回帖 登录 | 立即加入

本版积分规则

Archiver|小黑屋| 蓝光电影网 |网站地图

Copyright © 2021 Comsenz Inc. Powered by 蓝光电影网

蓝光电影网

本站内容由用户自主分享和转载自互联网,转载目的在于传递更多信息,并不代表本网赞同其观点和对其真实性负责。

如有侵权、违反国家法律政策行为,请联系我们,我们会第一时间及时清除和处理!

举报反馈邮箱:[email protected]

快速回复 返回顶部 返回列表