找回密码

蓝光电影网

查看: 126|回复: 1

[剧情] 骗子 Il.Bidone.1955.REMASTERED.1080p.BluRay.x264-USURY 17.15GB

[复制链接]
蓝光币
519
发表于 2021-10-13 20:37:36 | 显示全部楼层 |阅读模式


◎译  名 骗子/IL bidone/The Swindle/The Swindlers
◎片  名 Il bidone
◎年  代 1955
◎产  地 意大利,法国
◎类  别 剧情 / 笑剧
◎语  言 意大利语
◎上映日期 1955-10-07(意大利)
◎豆瓣评分 8.1/10 from 6158 users
◎豆瓣链接 https://movie.douban.com/subject/1303571/
◎片  长 113分钟
◎导  演 费德里科·费里尼 Federico Fellini
◎编  剧 费德里科·费里尼 Federico Fellini / 恩尼奥·弗拉亚诺 Ennio Flaiano / 图里奥·皮内利 Tullio Pinelli
◎主  演 布罗德里克·克劳福德 Broderick Crawford
       朱丽叶塔·马西纳 Giulietta Masina
       理查德·贝斯哈特 Richard Basehart
       佛朗哥·法布里齐 Franco Fabrizi
       Sue Ellen Blake Sue Ellen Blake
       Irene Cefaro Irene Cefaro
       洛雷拉·德卢卡 Lorella De Luca
       里卡尔多·加罗内 Riccardo Garrone
       Xenia Valderi Xenia Valderi
       Maria Zanoli Maria Zanoli
       埃托雷·贝维拉夸 Ettore Bevilacqua
       Gino Buzzanca Gino Buzzanca
       Ada Colangeli Ada Colangeli
◎标  签 意大利 | 费里尼 | 费德里科·费里尼 | 1955 | 意大利电影 | 黑白 | FedericoFellini | 1950s
◎简  介


  奥古斯特率领的三个骗子化装成传教士处处行骗,频频得手。一次他在陌头偶遇自己天真烂缦的女儿,心里不由有所顿悟,但却被人就地认出是骗子,并在女儿眼前给人逮送到警局。出狱后的奥古斯特重操旧业,但在为筹集女儿学费的一次行骗中,他想独吞财物而被朋友痛殴,终极死在山崖边。
◎获奖情况
  第16届威尼斯电影节 ?(1955)
  主比赛单元金狮奖(提名) 费德里科·费里尼
  1. Video
  2. ID                                       : 1
  3. Format                                   : AVC
  4. Format/Info                              : Advanced Video Codec
  5. Format profile                           : [email protected]
  6. Format settings                          : CABAC / 5 Ref Frames
  7. Format settings, CABAC                   : Yes
  8. Format settings, Reference frames        : 5 frames
  9. Codec ID                                 : V_MPEG4/ISO/AVC
  10. Duration                                 : 1 h 53 min
  11. Bit rate                                 : 21.0 Mb/s
  12. Width                                    : 1 478 pixels
  13. Height                                   : 1 080 pixels
  14. Display aspect ratio                     : 4:3
  15. Frame rate mode                          : Constant
  16. Frame rate                               : 23.976 (24000/1001/189150) FPS
  17. Color space                              : YUV
  18. Chroma subsampling                       : 4:2:0
  19. Bit depth                                : 8 bits
  20. Scan type                                : Progressive
  21. Bits/(Pixel*Frame)                       : 0.548
  22. Stream size                              : 16.7 GiB (97%)
  23. Writing library                          : x264 core 164 r3075 66a5bc1
  24. Encoding settings                        : cabac=1 / ref=5 / deblock=1:-3:-3 / analyse=0x3:0x133 / me=umh / subme=10 / psy=1 / psy_rd=1.00:0.15 / mixed_ref=1 / me_range=24 / chroma_me=1 / trellis=2 / 8x8dct=1 / cqm=0 / deadzone=21,11 / fast_pskip=1 / chroma_qp_offset=-3 / threads=18 / lookahead_threads=3 / sliced_threads=0 / nr=0 / decimate=1 / interlaced=0 / bluray_compat=0 / constrained_intra=0 / bframes=8 / b_pyramid=2 / b_adapt=2 / b_bias=0 / direct=3 / weightb=1 / open_gop=0 / weightp=2 / keyint=250 / keyint_min=23 / scenecut=40 / intra_refresh=0 / rc_lookahead=60 / rc=crf / mbtree=1 / crf=18.0 / qcomp=0.60 / qpmin=0 / qpmax=69 / qpstep=4 / ip_ratio=1.40 / aq=3:0.50
  25. Language                                 : English
  26. Default                                  : Yes
  27. Forced                                   : No

  28. Audio #1
  29. ID                                       : 2
  30. Format                                   : FLAC
  31. Format/Info                              : Free Lossless Audio Codec
  32. Codec ID                                 : A_FLAC
  33. Duration                                 : 1 h 53 min
  34. Bit rate mode                            : Variable
  35. Bit rate                                 : 527 kb/s
  36. Channel(s)                               : 1 channel
  37. Channel layout                           : C
  38. Sampling rate                            : 48.0 kHz
  39. Frame rate                               : 11.719 FPS (4096 SPF)
  40. Bit depth                                : 24 bits
  41. Compression mode                         : Lossless
  42. Stream size                              : 429 MiB (2%)
  43. Writing library                          : libFLAC 1.2.1 (UTC 2007-09-17)
  44. Language                                 : Italian
  45. Default                                  : Yes
  46. Forced                                   : No

  47. Audio #2
  48. ID                                       : 3
  49. Format                                   : AAC LC
  50. Format/Info                              : Advanced Audio Codec Low Complexity
  51. Codec ID                                 : A_AAC-2
  52. Duration                                 : 1 h 53 min
  53. Bit rate                                 : 64.1 kb/s
  54. Channel(s)                               : 1 channel
  55. Channel layout                           : C
  56. Sampling rate                            : 48.0 kHz
  57. Frame rate                               : 46.875 FPS (1024 SPF)
  58. Compression mode                         : Lossy
  59. Delay relative to video                  : 9 ms
  60. Stream size                              : 52.2 MiB (0%)
  61. Title                                    : English Commentary by Frank Burke
  62. Language                                 : English
  63. Default                                  : No
  64. Forced                                   : No

  65. Text #1
  66. ID                                       : 4
  67. Format                                   : UTF-8
  68. Codec ID                                 : S_TEXT/UTF8
  69. Codec ID/Info                            : UTF-8 Plain Text
  70. Duration                                 : 1 h 52 min
  71. Bit rate                                 : 58 b/s
  72. Count of elements                        : 1417
  73. Stream size                              : 47.9 KiB (0%)
  74. Title                                    : English
  75. Language                                 : English
  76. Default                                  : Yes
  77. Forced                                   : Yes

  78. Text #2
  79. ID                                       : 5
  80. Format                                   : PGS
  81. Muxing mode                              : zlib
  82. Codec ID                                 : S_HDMV/PGS
  83. Codec ID/Info                            : Picture based subtitle format used on BDs/HD-DVDs
  84. Duration                                 : 1 h 52 min
  85. Bit rate                                 : 8 431 b/s
  86. Count of elements                        : 2834
  87. Stream size                              : 6.78 MiB (0%)
  88. Title                                    : English
  89. Language                                 : English
  90. Default                                  : No
  91. Forced                                   : No

  92. Menu
  93. 00:00:00.000                             : en:00:00:00.000
  94. 00:03:05.519                             : en:00:03:05.519
  95. 00:06:28.930                             : en:00:06:28.930
  96. 00:11:32.066                             : en:00:11:32.066
  97. 00:14:15.563                             : en:00:14:15.563
  98. 00:19:47.853                             : en:00:19:47.853
  99. 00:23:41.337                             : en:00:23:41.337
  100. 00:30:05.137                             : en:00:30:05.137
  101. 00:31:32.974                             : en:00:31:32.974
  102. 00:37:25.702                             : en:00:37:25.702
  103. 00:42:30.381                             : en:00:42:30.381
  104. 00:46:21.070                             : en:00:46:21.070
  105. 00:52:13.380                             : en:00:52:13.380
  106. 00:58:13.073                             : en:00:58:13.073
  107. 01:03:21.631                             : en:01:03:21.631
  108. 01:06:52.342                             : en:01:06:52.342
  109. 01:10:45.992                             : en:01:10:45.992
  110. 01:20:50.846                             : en:01:20:50.846
  111. 01:30:07.944                             : en:01:30:07.944
  112. 01:39:47.190                             : en:01:39:47.190
  113. 01:48:44.977                             : en:01:48:44.977
复制代码





                                       
                                       

                                       
                                       
                                       




回复

使用道具 举报

蓝光币
2
发表于 2021-10-14 08:20:48 | 显示全部楼层
楼主发贴辛苦了,谢谢楼主分享!我觉得蓝光电影网是注册对了!
回复 支持 反对

使用道具 举报

懒得打字嘛,点击右侧快捷回复 【右侧内容,后台自定义】
您需要登录后才可以回帖 登录 | 立即加入

本版积分规则

Archiver|小黑屋| 蓝光电影网 |网站地图

Copyright © 2021 Comsenz Inc. Powered by 蓝光电影网

蓝光电影网

本站内容由用户自主分享和转载自互联网,转载目的在于传递更多信息,并不代表本网赞同其观点和对其真实性负责。

如有侵权、违反国家法律政策行为,请联系我们,我们会第一时间及时清除和处理!

举报反馈邮箱:[email protected]

快速回复 返回顶部 返回列表