找回密码

蓝光电影网

查看: 183|回复: 2

[动作] 幸存危机/杀戮狂想曲 Survive.the.Game.2021.1080p.BluRay.x264-WoAT 11.73GB

[复制链接]
蓝光币
519
发表于 2021-10-14 09:26:19 | 显示全部楼层 |阅读模式


◎译  名 幸存危机/杀戮狂想曲
◎片  名 Survive the Game
◎年  代 2021
◎产  地 美国
◎类  别 行动 / 惊悚
◎语  言 英语
◎上映日期 2021-10-08(美国)
◎豆瓣评分 /10 from 0 users
◎豆瓣链接 https://movie.douban.com/subject/35293262/
◎导  演 詹姆斯·库伦·布雷萨克 James Cullen Bressack
◎编  剧 Ross Peacock Ross Peacock
◎主  演 布鲁斯·威利斯 Bruce Willis
◎标  签 布鲁斯威利斯 | 行动 | 美国 | 惊悚 | 幸存危机 | 等资本 | WK
◎简  介


  当一个差人和一对危险的罪犯出现时,一小我在农场的生活被打断了。
  1. Video
  2. ID                                       : 1
  3. Format                                   : AVC
  4. Format/Info                              : Advanced Video Codec
  5. Format profile                           : [email protected]
  6. Format settings                          : CABAC / 5 Ref Frames
  7. Format settings, CABAC                   : Yes
  8. Format settings, Reference frames        : 5 frames
  9. Codec ID                                 : V_MPEG4/ISO/AVC
  10. Duration                                 : 1 h 36 min
  11. Bit rate                                 : 13.3 Mb/s
  12. Width                                    : 1 920 pixels
  13. Height                                   : 804 pixels
  14. Display aspect ratio                     : 2.40:1
  15. Frame rate mode                          : Constant
  16. Frame rate                               : 23.976 (24000/1001/189150) FPS
  17. Color space                              : YUV
  18. Chroma subsampling                       : 4:2:0
  19. Bit depth                                : 8 bits
  20. Scan type                                : Progressive
  21. Bits/(Pixel*Frame)                       : 0.360
  22. Stream size                              : 8.99 GiB (77%)
  23. Writing library                          : x264 core 164 r3075 66a5bc1
  24. Encoding settings                        : cabac=1 / ref=5 / deblock=1:-3:-3 / analyse=0x3:0x133 / me=umh / subme=9 / psy=1 / psy_rd=1.00:0.00 / mixed_ref=1 / me_range=32 / chroma_me=1 / trellis=2 / 8x8dct=1 / cqm=0 / deadzone=21,11 / fast_pskip=0 / chroma_qp_offset=-2 / threads=16 / lookahead_threads=2 / sliced_threads=0 / nr=0 / decimate=0 / interlaced=0 / bluray_compat=0 / constrained_intra=0 / bframes=8 / b_pyramid=2 / b_adapt=2 / b_bias=0 / direct=3 / weightb=1 / open_gop=0 / weightp=2 / keyint=250 / keyint_min=23 / scenecut=40 / intra_refresh=0 / rc_lookahead=60 / rc=crf / mbtree=1 / crf=18.5 / qcomp=0.60 / qpmin=0 / qpmax=69 / qpstep=4 / ip_ratio=1.40 / aq=3:0.88
  25. Default                                  : Yes
  26. Forced                                   : No
  27. Color range                              : Limited
  28. Matrix coefficients                      : BT.709

  29. Audio
  30. ID                                       : 2
  31. Format                                   : DTS XLL
  32. Format/Info                              : Digital Theater Systems
  33. Commercial name                          : DTS-HD Master Audio
  34. Codec ID                                 : A_DTS
  35. Duration                                 : 1 h 36 min
  36. Bit rate mode                            : Variable
  37. Bit rate                                 : 4 019 kb/s
  38. Channel(s)                               : 6 channels
  39. Channel layout                           : C L R Ls Rs LFE
  40. Sampling rate                            : 48.0 kHz
  41. Frame rate                               : 93.750 FPS (512 SPF)
  42. Bit depth                                : 24 bits
  43. Compression mode                         : Lossless
  44. Stream size                              : 2.71 GiB (23%)
  45. Title                                    : English
  46. Language                                 : English
  47. Default                                  : No
  48. Forced                                   : No

  49. Text #1
  50. ID                                       : 3
  51. Format                                   : PGS
  52. Muxing mode                              : zlib
  53. Codec ID                                 : S_HDMV/PGS
  54. Codec ID/Info                            : Picture based subtitle format used on BDs/HD-DVDs
  55. Duration                                 : 1 h 33 min
  56. Bit rate                                 : 27.5 kb/s
  57. Count of elements                        : 2208
  58. Stream size                              : 18.3 MiB (0%)
  59. Title                                    : English
  60. Language                                 : English
  61. Default                                  : No
  62. Forced                                   : No

  63. Text #2
  64. ID                                       : 4
  65. Format                                   : PGS
  66. Muxing mode                              : zlib
  67. Codec ID                                 : S_HDMV/PGS
  68. Codec ID/Info                            : Picture based subtitle format used on BDs/HD-DVDs
  69. Duration                                 : 1 h 34 min
  70. Bit rate                                 : 21.7 kb/s
  71. Count of elements                        : 1784
  72. Stream size                              : 14.6 MiB (0%)
  73. Title                                    : Spanish
  74. Language                                 : Spanish
  75. Default                                  : No
  76. Forced                                   : No

  77. Text #3
  78. ID                                       : 5
  79. Format                                   : PGS
  80. Muxing mode                              : zlib
  81. Codec ID                                 : S_HDMV/PGS
  82. Codec ID/Info                            : Picture based subtitle format used on BDs/HD-DVDs
  83. Duration                                 : 1 h 32 min
  84. Bit rate                                 : 22.9 kb/s
  85. Count of elements                        : 1790
  86. Stream size                              : 15.1 MiB (0%)
  87. Title                                    : Portuguese
  88. Language                                 : Portuguese
  89. Default                                  : No
  90. Forced                                   : No

  91. Menu
  92. 00:00:00.000                             : Chapter 01
  93. 00:05:20.320                             : Chapter 02
  94. 00:11:58.008                             : Chapter 03
  95. 00:18:22.351                             : Chapter 04
  96. 00:23:16.103                             : Chapter 05
  97. 00:28:51.271                             : Chapter 06
  98. 00:36:05.913                             : Chapter 07
  99. 00:41:29.778                             : Chapter 08
  100. 00:47:46.071                             : Chapter 09
  101. 00:53:09.936                             : Chapter 10
  102. 00:59:22.392                             : Chapter 11
  103. 01:04:42.837                             : Chapter 12
  104. 01:11:05.594                             : Chapter 13
  105. 01:19:50.202                             : Chapter 14
  106. 01:27:14.771                             : Chapter 15
  107. 01:32:28.042                             : Chapter 16
复制代码





                                       
                                       

                                       
                                       
                                       




回复

使用道具 举报

蓝光币
645
发表于 2021-10-14 18:07:07 | 显示全部楼层
谢谢楼主分享.
回复 支持 反对

使用道具 举报

蓝光币
4
发表于 2021-10-16 01:37:14 | 显示全部楼层

这东西我收了!谢谢楼主!蓝光电影网真好!
回复 支持 反对

使用道具 举报

懒得打字嘛,点击右侧快捷回复 【右侧内容,后台自定义】
您需要登录后才可以回帖 登录 | 立即加入

本版积分规则

Archiver|小黑屋| 蓝光电影网 |网站地图

Copyright © 2021 Comsenz Inc. Powered by 蓝光电影网

蓝光电影网

本站内容由用户自主分享和转载自互联网,转载目的在于传递更多信息,并不代表本网赞同其观点和对其真实性负责。

如有侵权、违反国家法律政策行为,请联系我们,我们会第一时间及时清除和处理!

举报反馈邮箱:[email protected]

快速回复 返回顶部 返回列表