找回密码

蓝光电影网

查看: 127|回复: 1

[剧情] 阿玛柯德 Amarcord.1973.REMASTERED.1080p.BluRay.x264-USURY 16.24GB

[复制链接]
蓝光币
519
发表于 2021-10-14 09:38:24 | 显示全部楼层 |阅读模式


◎译  名 阿玛柯德/I Remember/昔时事/想昔时(港)/我的回忆/我记得/我记得,想昔时/童年龄,我记得/阿玛珂德(台)
◎片  名 Amarcord
◎年  代 1973
◎产  地 意大利,法国
◎类  别 剧情 / 笑剧
◎语  言 意大利语,古希腊语
◎上映日期 1973-12-18(意大利)
◎豆瓣评分 8.8/10 from 12852 users
◎豆瓣链接 https://movie.douban.com/subject/1298672/
◎片  长 123分钟
◎导  演 费德里科·费里尼 Federico Fellini
◎编  剧 费德里科·费里尼 Federico Fellini / 托尼诺·格拉 Tonino Guerra
◎主  演 普佩拉·玛奇妙 Pupella Maggio
       阿尔曼多·布兰恰 Armando Brancia
       玛加莉·诺埃尔 Magali No?l
       奇乔·因格拉西亚 Ciccio Ingrassia
       南多·奥尔费伊 Nando Orfei
       布鲁诺·扎宁 Bruno Zanin
       吉安菲利波·卡尔卡诺 Gianfilippo Carcano
       约瑟琳·坦齐利 Josiane Tanzilli
       玛利亚·安东涅塔·贝卢齐 Maria Antonietta Beluzzi
       Antonino Faa Di Bruno Antonino Faa Di Bruno
       Aristide Caporale Aristide Caporale
       阿尔瓦罗·维塔利 Alvaro Vitali
       多纳泰拉·甘比尼 Donatella Gambini
       Dina Adorni Dina Adorni
       保罗·巴罗尼 Paolo Baroni
       布鲁诺·贝托奇 Bruno Bertocci
       Marcello Bonini Olas Marcello Bonini Olas
       Dante Cleri Dante Cleri
       Mario Del Vago Mario Del Vago
       弗朗西斯科·马塞利 Francesco Maselli
       Eros Ramazzotti Eros Ramazzotti
       菲德斯·斯塔尼 Fides Stagni
◎标  签 意大利 | 1973 | 笑剧 | 奥斯卡最好外语片 | 剧情 | 欧洲 | 法国 | 典范
◎简  介


  ◎1975奧斯卡最好外語片
  
  ◎1974紐約影評人協會最好導演及最好影片
  
  三月,空氣中紛飛飄揚著輕軟絮草,教堂的鐘響迴盪在石板路上,小鎮的春季就此揭開序幕。時序回到三零年月亞德里亞海邊的小城,墨索里尼的極右理想还是信仰的教條,建築工人爸爸、家庭主婦老媽、遊手好閒的舅舅、頑皮的小弟,男孩在天主教、法西斯和義大利傳統家庭價值中,驱逐他的青春與成長。课堂裡玩弄老師的惡作劇、教堂裡擔心手淫的懺悔、鄉村海邊的熱鬧婚宴,費里尼從容隨意地摘選擷取小鎮生活的切片與軼事,密密織就一片記憶之網,在時代洪流與個人思憶之間相互輝映。
  
  費里尼曾說:「一個人所能做的紀錄,永遠是,也只能是對他自己的紀錄」。《阿瑪珂德》不单被推重為其個人寫實語法的代表作,也被視為他最重要的自傳作品之一。影片一方面帶領觀眾走進費里尼的童年生活,看見他純真誠摯、诙谐風趣的感情源頭。在時代景況的描繪上,也跳脫了純粹客觀、歷史觀察式的審視與檢驗,從最底子的生活細節著手,真實地重現了二次大戰前後義大利境內法西斯的樣貌。
  
  风趣的是,在《阿瑪珂德》中,我們也可清楚地看到費里尼對女性形象的思考與著迷,聖母、烈女、蕩婦的三位一體,母親與妓女构成了互為表裡的對比,而費里尼作品中频频出現的、體態豐腴、庞大的女體,不单是哺育孩童的母性根源,也是青年性啟蒙的開端。
◎获奖情况
  第48届奥斯卡金像奖 ?(1976)
  最好导演(提名) 费德里科·费里尼
  最好原创剧本(提名) 费德里科·费里尼?/?托尼诺·格拉
  
  第47届奥斯卡金像奖 ?(1975)
  最好外语片
  1. Video
  2. ID                                       : 1
  3. Format                                   : AVC
  4. Format/Info                              : Advanced Video Codec
  5. Format profile                           : [email protected]
  6. Format settings                          : CABAC / 4 Ref Frames
  7. Format settings, CABAC                   : Yes
  8. Format settings, Reference frames        : 4 frames
  9. Codec ID                                 : V_MPEG4/ISO/AVC
  10. Duration                                 : 2 h 5 min
  11. Bit rate                                 : 17.6 Mb/s
  12. Width                                    : 1 920 pixels
  13. Height                                   : 1 038 pixels
  14. Display aspect ratio                     : 1.85:1
  15. Frame rate mode                          : Constant
  16. Frame rate                               : 23.976 (24000/1001/189150) FPS
  17. Color space                              : YUV
  18. Chroma subsampling                       : 4:2:0
  19. Bit depth                                : 8 bits
  20. Scan type                                : Progressive
  21. Bits/(Pixel*Frame)                       : 0.368
  22. Stream size                              : 15.5 GiB (95%)
  23. Writing library                          : x264 core 164 r3075 66a5bc1
  24. Encoding settings                        : cabac=1 / ref=4 / deblock=1:-3:-3 / analyse=0x3:0x133 / me=umh / subme=10 / psy=1 / psy_rd=1.00:0.15 / mixed_ref=1 / me_range=24 / chroma_me=1 / trellis=2 / 8x8dct=1 / cqm=0 / deadzone=21,11 / fast_pskip=1 / chroma_qp_offset=-3 / threads=18 / lookahead_threads=3 / sliced_threads=0 / nr=0 / decimate=1 / interlaced=0 / bluray_compat=0 / constrained_intra=0 / bframes=8 / b_pyramid=2 / b_adapt=2 / b_bias=0 / direct=3 / weightb=1 / open_gop=0 / weightp=2 / keyint=250 / keyint_min=23 / scenecut=40 / intra_refresh=0 / rc_lookahead=60 / rc=crf / mbtree=1 / crf=21.0 / qcomp=0.60 / qpmin=0 / qpmax=69 / qpstep=4 / ip_ratio=1.40 / aq=3:0.50
  25. Language                                 : English
  26. Default                                  : Yes
  27. Forced                                   : No

  28. Audio #1
  29. ID                                       : 2
  30. Format                                   : FLAC
  31. Format/Info                              : Free Lossless Audio Codec
  32. Codec ID                                 : A_FLAC
  33. Duration                                 : 2 h 5 min
  34. Bit rate mode                            : Variable
  35. Bit rate                                 : 609 kb/s
  36. Channel(s)                               : 1 channel
  37. Channel layout                           : C
  38. Sampling rate                            : 48.0 kHz
  39. Frame rate                               : 11.719 FPS (4096 SPF)
  40. Bit depth                                : 24 bits
  41. Compression mode                         : Lossless
  42. Stream size                              : 548 MiB (3%)
  43. Writing library                          : libFLAC 1.2.1 (UTC 2007-09-17)
  44. Language                                 : Italian
  45. Default                                  : Yes
  46. Forced                                   : No

  47. Audio #2
  48. ID                                       : 3
  49. Format                                   : AC-3
  50. Format/Info                              : Audio Coding 3
  51. Commercial name                          : Dolby Digital
  52. Codec ID                                 : A_AC3
  53. Duration                                 : 2 h 5 min
  54. Bit rate mode                            : Constant
  55. Bit rate                                 : 192 kb/s
  56. Channel(s)                               : 1 channel
  57. Channel layout                           : C
  58. Sampling rate                            : 48.0 kHz
  59. Frame rate                               : 31.250 FPS (1536 SPF)
  60. Compression mode                         : Lossy
  61. Stream size                              : 173 MiB (1%)
  62. Language                                 : English
  63. Service kind                             : Complete Main
  64. Default                                  : No
  65. Forced                                   : No

  66. Audio #3
  67. ID                                       : 4
  68. Format                                   : AAC LC
  69. Format/Info                              : Advanced Audio Codec Low Complexity
  70. Codec ID                                 : A_AAC-2
  71. Duration                                 : 2 h 5 min
  72. Bit rate                                 : 62.2 kb/s
  73. Channel(s)                               : 1 channel
  74. Channel layout                           : C
  75. Sampling rate                            : 48.0 kHz
  76. Frame rate                               : 46.875 FPS (1024 SPF)
  77. Compression mode                         : Lossy
  78. Delay relative to video                  : 9 ms
  79. Stream size                              : 56.0 MiB (0%)
  80. Title                                    : English Commentary by Frank Burke
  81. Language                                 : English
  82. Default                                  : No
  83. Forced                                   : No

  84. Text #1
  85. ID                                       : 5
  86. Format                                   : UTF-8
  87. Codec ID                                 : S_TEXT/UTF8
  88. Codec ID/Info                            : UTF-8 Plain Text
  89. Duration                                 : 2 h 1 min
  90. Bit rate                                 : 46 b/s
  91. Count of elements                        : 1265
  92. Stream size                              : 41.2 KiB (0%)
  93. Title                                    : English
  94. Language                                 : English
  95. Default                                  : Yes
  96. Forced                                   : Yes

  97. Text #2
  98. ID                                       : 6
  99. Format                                   : PGS
  100. Muxing mode                              : zlib
  101. Codec ID                                 : S_HDMV/PGS
  102. Codec ID/Info                            : Picture based subtitle format used on BDs/HD-DVDs
  103. Duration                                 : 2 h 1 min
  104. Bit rate                                 : 6 733 b/s
  105. Count of elements                        : 2530
  106. Stream size                              : 5.84 MiB (0%)
  107. Title                                    : English
  108. Language                                 : English
  109. Default                                  : No
  110. Forced                                   : No

  111. Menu
  112. 00:00:00.000                             : en:00:00:00.000
  113. 00:04:21.928                             : en:00:04:21.928
  114. 00:06:42.902                             : en:00:06:42.902
  115. 00:11:55.131                             : en:00:11:55.131
  116. 00:13:47.201                             : en:00:13:47.201
  117. 00:15:25.967                             : en:00:15:25.967
  118. 00:23:21.442                             : en:00:23:21.442
  119. 00:25:33.782                             : en:00:25:33.782
  120. 00:32:46.631                             : en:00:32:46.631
  121. 00:37:06.975                             : en:00:37:06.975
  122. 00:42:55.364                             : en:00:42:55.364
  123. 00:48:44.004                             : en:00:48:44.004
  124. 00:52:21.096                             : en:00:52:21.096
  125. 00:58:03.939                             : en:00:58:03.939
  126. 01:06:41.831                             : en:01:06:41.831
  127. 01:09:50.645                             : en:01:09:50.645
  128. 01:16:50.564                             : en:01:16:50.564
  129. 01:24:56.091                             : en:01:24:56.091
  130. 01:31:59.305                             : en:01:31:59.305
  131. 01:40:08.377                             : en:01:40:08.377
  132. 01:46:05.192                             : en:01:46:05.192
  133. 01:50:52.187                             : en:01:50:52.187
  134. 01:52:39.711                             : en:01:52:39.711
  135. 01:55:28.839                             : en:01:55:28.839
  136. 02:00:16.126                             : en:02:00:16.126
复制代码





                                       
                                       

                                       
                                       
                                       




回复

使用道具 举报

蓝光币
7
发表于 2021-10-14 15:19:09 | 显示全部楼层
很另类,谢分享!
回复 支持 反对

使用道具 举报

懒得打字嘛,点击右侧快捷回复 【右侧内容,后台自定义】
您需要登录后才可以回帖 登录 | 立即加入

本版积分规则

Archiver|小黑屋| 蓝光电影网 |网站地图

Copyright © 2021 Comsenz Inc. Powered by 蓝光电影网

蓝光电影网

本站内容由用户自主分享和转载自互联网,转载目的在于传递更多信息,并不代表本网赞同其观点和对其真实性负责。

如有侵权、违反国家法律政策行为,请联系我们,我们会第一时间及时清除和处理!

举报反馈邮箱:[email protected]

快速回复 返回顶部 返回列表