找回密码

蓝光电影网

查看: 120|回复: 0

[剧情] 访谈录 Intervista.1987.1080p.BluRay.x264-USURY 13.41GB

[复制链接]
蓝光币
519
发表于 2021-10-14 09:32:17 | 显示全部楼层 |阅读模式


◎译  名 访谈录/Fellini's Intervista/费里尼的剪贴簿(台)/追访费里尼(港)
◎片  名 Intervista
◎年  代 1987
◎产  地 意大利
◎类  别 剧情 / 笑剧 / 奇异
◎语  言 意大利语,日语,英语
◎上映日期 1987-10-01(意大利)
◎豆瓣评分 8.0/10 from 2315 users
◎豆瓣链接 https://movie.douban.com/subject/1303528/
◎片  长 105分钟
◎导  演 费德里科·费里尼 Federico Fellini
◎编  剧 费德里科·费里尼 Federico Fellini
◎主  演 赛尔乔·鲁比尼 Sergio Rubini
       安东内拉·蓬西亚尼 Antonella Ponziani
       Paola Liguori Paola Liguori
       拉腊·文德尔 Lara Wendel
       安东尼奥·坎塔福拉 Antonio Cantafora
       Nadia Ottaviani Nadia Ottaviani
       安妮塔·艾克伯格 Anita Ekberg
       马塞洛·马斯楚安尼 Marcello Mastroianni
       Christian Borromeo Christian Borromeo
       Lionello Pio Di Savoia Lionello Pio Di Savoia
       阿德里亚娜·法切蒂 Adriana Facchetti
       埃托雷·杰里 Ettore Geri
       伊娃·格里茂迪 Eva Grimaldi
       Francesca Reggiani Francesca Reggiani
       Patrizia Sacchi Patrizia Sacchi
       多米齐安诺·阿克安格尼 Domiziano Arcangeli
       Dario Casalini Dario Casalini
       托尼诺·德里·戈里 Tonino Delli Colli
       费德里科·费里尼 Federico Fellini
        Riccardo Onorato
◎标  签 意大利 | 费里尼 | 费德里科·费里尼 | 1987 | FedericoFellini | 意大利电影 | 列传 | 1980s
◎简  介


  假如说《想昔时》是费里尼对少年时代的回忆,《八部半》是对他中年创作危机的记录,《罗马》是对他所爱的城市的礼赞,那末本片就是他对Cinecitta电影厂的颂歌。
  
  影片将回忆、嘲讽、自省、空想等元素融合在一路,让我们见识了镜头前后的各类人物。影片飞腾是《甜蜜的生活》的重映把片中配角重新聚集一堂,很有一点大师主掌央视《同一首歌》的味道。
  
  第40届戛纳电影节(1987)  40周年奖  费德里科·费里尼
  
  第13届凯撒奖(1988)  凯撒奖-最好本国电影(提名)  费德里科·费里尼
◎获奖情况
  第40届戛纳电影节 ?(1987)
  40周年数念奖 费德里科·费里尼
  1. Video
  2. ID                                       : 1
  3. Format                                   : AVC
  4. Format/Info                              : Advanced Video Codec
  5. Format profile                           : [email protected]
  6. Format settings                          : CABAC / 5 Ref Frames
  7. Format settings, CABAC                   : Yes
  8. Format settings, Reference frames        : 5 frames
  9. Codec ID                                 : V_MPEG4/ISO/AVC
  10. Duration                                 : 1 h 47 min
  11. Bit rate                                 : 17.3 Mb/s
  12. Width                                    : 1 480 pixels
  13. Height                                   : 1 080 pixels
  14. Display aspect ratio                     : 1.370
  15. Frame rate mode                          : Constant
  16. Frame rate                               : 23.976 (24000/1001/189150) FPS
  17. Color space                              : YUV
  18. Chroma subsampling                       : 4:2:0
  19. Bit depth                                : 8 bits
  20. Scan type                                : Progressive
  21. Bits/(Pixel*Frame)                       : 0.450
  22. Stream size                              : 13.0 GiB (97%)
  23. Writing library                          : x264 core 164 r3075 66a5bc1
  24. Encoding settings                        : cabac=1 / ref=5 / deblock=1:-3:-3 / analyse=0x3:0x133 / me=umh / subme=10 / psy=1 / psy_rd=1.00:0.15 / mixed_ref=1 / me_range=24 / chroma_me=1 / trellis=2 / 8x8dct=1 / cqm=0 / deadzone=21,11 / fast_pskip=1 / chroma_qp_offset=-3 / threads=18 / lookahead_threads=3 / sliced_threads=0 / nr=0 / decimate=1 / interlaced=0 / bluray_compat=0 / constrained_intra=0 / bframes=8 / b_pyramid=2 / b_adapt=2 / b_bias=0 / direct=3 / weightb=1 / open_gop=0 / weightp=2 / keyint=250 / keyint_min=23 / scenecut=40 / intra_refresh=0 / rc_lookahead=60 / rc=crf / mbtree=1 / crf=19.5 / qcomp=0.60 / qpmin=0 / qpmax=69 / qpstep=4 / ip_ratio=1.40 / aq=3:0.50
  25. Language                                 : English
  26. Default                                  : Yes
  27. Forced                                   : No

  28. Audio
  29. ID                                       : 2
  30. Format                                   : FLAC
  31. Format/Info                              : Free Lossless Audio Codec
  32. Codec ID                                 : A_FLAC
  33. Duration                                 : 1 h 47 min
  34. Bit rate mode                            : Variable
  35. Bit rate                                 : 569 kb/s
  36. Channel(s)                               : 1 channel
  37. Channel layout                           : C
  38. Sampling rate                            : 48.0 kHz
  39. Frame rate                               : 11.719 FPS (4096 SPF)
  40. Bit depth                                : 24 bits
  41. Compression mode                         : Lossless
  42. Stream size                              : 439 MiB (3%)
  43. Writing library                          : libFLAC 1.2.1 (UTC 2007-09-17)
  44. Language                                 : Italian
  45. Default                                  : Yes
  46. Forced                                   : No

  47. Text #1
  48. ID                                       : 3
  49. Format                                   : UTF-8
  50. Codec ID                                 : S_TEXT/UTF8
  51. Codec ID/Info                            : UTF-8 Plain Text
  52. Duration                                 : 1 h 42 min
  53. Bit rate                                 : 71 b/s
  54. Count of elements                        : 1506
  55. Stream size                              : 54.2 KiB (0%)
  56. Title                                    : English
  57. Language                                 : English
  58. Default                                  : Yes
  59. Forced                                   : Yes

  60. Text #2
  61. ID                                       : 4
  62. Format                                   : PGS
  63. Muxing mode                              : zlib
  64. Codec ID                                 : S_HDMV/PGS
  65. Codec ID/Info                            : Picture based subtitle format used on BDs/HD-DVDs
  66. Duration                                 : 1 h 42 min
  67. Bit rate                                 : 10.3 kb/s
  68. Count of elements                        : 3012
  69. Stream size                              : 7.55 MiB (0%)
  70. Title                                    : English
  71. Language                                 : English
  72. Default                                  : No
  73. Forced                                   : No

  74. Menu
  75. 00:00:00.000                             : en:00:00:00.000
  76. 00:07:05.967                             : en:00:07:05.967
  77. 00:13:28.266                             : en:00:13:28.266
  78. 00:17:59.912                             : en:00:17:59.912
  79. 00:20:54.086                             : en:00:20:54.086
  80. 00:27:13.257                             : en:00:27:13.257
  81. 00:31:20.045                             : en:00:31:20.045
  82. 00:36:14.172                             : en:00:36:14.172
  83. 00:40:09.574                             : en:00:40:09.574
  84. 00:47:08.701                             : en:00:47:08.701
  85. 00:56:18.625                             : en:00:56:18.625
  86. 01:05:27.674                             : en:01:05:27.674
  87. 01:14:48.609                             : en:01:14:48.609
  88. 01:27:34.916                             : en:01:27:34.916
  89. 01:34:03.888                             : en:01:34:03.888
  90. 01:38:23.689                             : en:01:38:23.689
  91. 01:45:06.842                             : en:01:45:06.842
复制代码




                                       
                                       

                                       
                                       
                                       




回复

使用道具 举报

懒得打字嘛,点击右侧快捷回复 【右侧内容,后台自定义】
您需要登录后才可以回帖 登录 | 立即加入

本版积分规则

Archiver|小黑屋| 蓝光电影网 |网站地图

Copyright © 2021 Comsenz Inc. Powered by 蓝光电影网

蓝光电影网

本站内容由用户自主分享和转载自互联网,转载目的在于传递更多信息,并不代表本网赞同其观点和对其真实性负责。

如有侵权、违反国家法律政策行为,请联系我们,我们会第一时间及时清除和处理!

举报反馈邮箱:[email protected]

快速回复 返回顶部 返回列表