找回密码

蓝光电影网

查看: 104|回复: 0

[REMUX.HEVC] 夜深血红 Deep.Red.1975.ITALIAN.2160p.BluRay.REMUX.HEVC.DTS-HD.MA.5.1-FGT 75.74GB

[复制链接]
蓝光币
509
发表于 前天 12:09 | 显示全部楼层 |阅读模式


◎译  名 夜深血红/Deep Red/蹀血猎杀/深夜止步(台)/深红
◎片  名 Profondo rosso
◎年  代 1975
◎产  地 意大利
◎类  别 悬疑 / 可骇 / 犯罪
◎语  言 意大利语
◎上映日期 1975-03-07
◎豆瓣评分 7.7/10 from 4201 users
◎豆瓣链接 https://movie.douban.com/subject/1299898/
◎片  长 126 分钟
◎导  演 达里奥·阿基多 Dario Argento
◎编  剧 贝纳迪诺·扎波尼 Bernardino Zapponi / 达里奥·阿基多 Dario Argento
◎主  演 戴维·海明斯 David Hemmings
       达里亚·尼科洛迪 Daria Nicolodi
       加布里埃莱·拉维亚 Gabriele Lavia
       克拉拉·卡拉马伊 Clara Calamai
       Geraldine Hooper Geraldine Hooper
       达里奥·阿基多 Dario Argento
       Piero Mazzinghi Piero Mazzinghi
       格劳科·毛里 Glauco Mauri
       Liana Del Balzo Liana Del Balzo
       爱洛斯·帕尼 Eros Pagni
       朱丽娅娜·盖兰德拉 Giuliana Calandra
       约翰·卡普洛斯 John Kapelos
       史蒂文·威廉姆斯 Steven Williams
       迈克尔·比恩 Michael Biehn
       托宾·贝尔 Tobin Bell
       琳赛·霍恩 Lindsey Haun
       Jack Andreozzi Jack Andreozzi
       Chayse Dacoda Chayse Dacoda
       Hank Cheyne Hank Cheyne
       约翰·德·兰西 John de Lancie
       迈克尔·德·巴雷斯 Michael Des Barres
       乔安娜·帕库拉 Joanna Pacula
◎标  签 意大利 | 可骇 | 惊悚 | 悬疑 | 意大利电影 | 1975 | DarioArgento | 1970s
◎简  介


  意大利最巨大可骇大师达里奥.亚金托(《阴风阵阵》)执导的典范悬疑可骇片 。一个在罗马的英国音乐家在一本奥秘的鬼魅书中读到关于他邻人若何残暴被杀的进程,他前往造访该书的作者,发现她也成了谋杀的牺牲品。音乐家在解开谜团的进程中,履历了很多奇异而可骇的工作。影片的形式感很是强,不管是使民气跳的摇滚乐还是可骇氛围的营建,都非常到位。意大利的完整版比其他版本多出20多分钟,其中包括了更多的血腥暴力排场。
  1. Video
  2. ID                                       : 1
  3. ID in the original source medium         : 4113 (0x1011)
  4. Format                                   : HEVC
  5. Format/Info                              : High Efficiency Video Coding
  6. Format profile                           : Main [email protected]@High
  7. HDR format                               : Dolby Vision, Version 1.0, dvhe.07.06, BL+EL+RPU, Blu-ray compatible / SMPTE ST 2086, HDR10 compatible
  8. Codec ID                                 : V_MPEGH/ISO/HEVC
  9. Duration                                 : 2 h 7 min
  10. Bit rate                                 : 79.3 Mb/s
  11. Width                                    : 3 840 pixels
  12. Height                                   : 2 160 pixels
  13. Display aspect ratio                     : 16:9
  14. Frame rate mode                          : Constant
  15. Frame rate                               : 23.976 (24000/1001/189150) FPS
  16. Color space                              : YUV
  17. Chroma subsampling                       : 4:2:0 (Type 2)
  18. Bit depth                                : 10 bits
  19. Bits/(Pixel*Frame)                       : 0.399
  20. Stream size                              : 70.4 GiB (93%)
  21. Language                                 : English
  22. Default                                  : No
  23. Forced                                   : No
  24. Color range                              : Limited
  25. Color primaries                          : BT.2020
  26. Transfer characteristics                 : PQ
  27. Matrix coefficients                      : BT.2020 non-constant
  28. Mastering display color primaries        : BT.2020
  29. Mastering display luminance              : min: 0.0001 cd/m2, max: 1000 cd/m2
  30. Original source medium                   : Blu-ray
  31. Audio #1
  32. ID                                       : 2
  33. ID in the original source medium         : 4353 (0x1101)
  34. Format                                   : DTS XLL
  35. Format/Info                              : Digital Theater Systems
  36. Commercial name                          : DTS-HD Master Audio
  37. Codec ID                                 : A_DTS
  38. Duration                                 : 2 h 7 min
  39. Bit rate mode                            : Variable
  40. Bit rate                                 : 2 199 kb/s
  41. Channel(s)                               : 6 channels
  42. Channel layout                           : C L R Ls Rs LFE
  43. Sampling rate                            : 48.0 kHz
  44. Frame rate                               : 93.750 FPS (512 SPF)
  45. Bit depth                                : 16 bits
  46. Compression mode                         : Lossless
  47. Stream size                              : 1.95 GiB (3%)
  48. Title                                    : DTS-HD MA 5.1
  49. Language                                 : Italian
  50. Default                                  : Yes
  51. Forced                                   : No
  52. Original source medium                   : Blu-ray
  53. Audio #2
  54. ID                                       : 3
  55. Format                                   : AC-3
  56. Format/Info                              : Audio Coding 3
  57. Commercial name                          : Dolby Digital
  58. Codec ID                                 : A_AC3
  59. Duration                                 : 2 h 7 min
  60. Bit rate mode                            : Constant
  61. Bit rate                                 : 640 kb/s
  62. Channel(s)                               : 6 channels
  63. Channel layout                           : L R C LFE Ls Rs
  64. Sampling rate                            : 48.0 kHz
  65. Frame rate                               : 31.250 FPS (1536 SPF)
  66. Compression mode                         : Lossy
  67. Stream size                              : 582 MiB (1%)
  68. Title                                    : DD 5.1
  69. Language                                 : Italian
  70. Service kind                             : Complete Main
  71. Default                                  : No
  72. Forced                                   : No
  73. Audio #3
  74. ID                                       : 4
  75. ID in the original source medium         : 4354 (0x1102)
  76. Format                                   : DTS XLL
  77. Format/Info                              : Digital Theater Systems
  78. Commercial name                          : DTS-HD Master Audio
  79. Codec ID                                 : A_DTS
  80. Duration                                 : 2 h 7 min
  81. Bit rate mode                            : Variable
  82. Bit rate                                 : 1 031 kb/s
  83. Channel(s)                               : 1 channel
  84. Channel layout                           : C
  85. Sampling rate                            : 48.0 kHz
  86. Frame rate                               : 93.750 FPS (512 SPF)
  87. Bit depth                                : 24 bits
  88. Compression mode                         : Lossless
  89. Stream size                              : 939 MiB (1%)
  90. Title                                    : DTS-HD MA 1.0
  91. Language                                 : English
  92. Default                                  : No
  93. Forced                                   : No
  94. Original source medium                   : Blu-ray
  95. Audio #4
  96. ID                                       : 5
  97. Format                                   : AC-3
  98. Format/Info                              : Audio Coding 3
  99. Commercial name                          : Dolby Digital
  100. Codec ID                                 : A_AC3
  101. Duration                                 : 2 h 7 min
  102. Bit rate mode                            : Constant
  103. Bit rate                                 : 640 kb/s
  104. Channel(s)                               : 1 channel
  105. Channel layout                           : C
  106. Sampling rate                            : 48.0 kHz
  107. Frame rate                               : 31.250 FPS (1536 SPF)
  108. Compression mode                         : Lossy
  109. Stream size                              : 582 MiB (1%)
  110. Language                                 : English
  111. Service kind                             : Complete Main
  112. Default                                  : No
  113. Forced                                   : No
  114. Audio #5
  115. ID                                       : 6
  116. ID in the original source medium         : 4352 (0x1100)
  117. Format                                   : DTS XLL
  118. Format/Info                              : Digital Theater Systems
  119. Commercial name                          : DTS-HD Master Audio
  120. Codec ID                                 : A_DTS
  121. Duration                                 : 2 h 7 min
  122. Bit rate mode                            : Variable
  123. Bit rate                                 : 1 046 kb/s
  124. Channel(s)                               : 1 channel
  125. Channel layout                           : C
  126. Sampling rate                            : 48.0 kHz
  127. Frame rate                               : 93.750 FPS (512 SPF)
  128. Bit depth                                : 24 bits
  129. Compression mode                         : Lossless
  130. Stream size                              : 951 MiB (1%)
  131. Title                                    : DTS-HD MA 1.0
  132. Language                                 : Italian
  133. Default                                  : No
  134. Forced                                   : No
  135. Original source medium                   : Blu-ray
  136. Audio #6
  137. ID                                       : 7
  138. ID in the original source medium         : 4355 (0x1103)
  139. Format                                   : AC-3
  140. Format/Info                              : Audio Coding 3
  141. Commercial name                          : Dolby Digital
  142. Codec ID                                 : A_AC3
  143. Duration                                 : 2 h 7 min
  144. Bit rate mode                            : Constant
  145. Bit rate                                 : 192 kb/s
  146. Channel(s)                               : 2 channels
  147. Channel layout                           : L R
  148. Sampling rate                            : 48.0 kHz
  149. Frame rate                               : 31.250 FPS (1536 SPF)
  150. Compression mode                         : Lossy
  151. Stream size                              : 175 MiB (0%)
  152. Title                                    : DD 2.0
  153. Language                                 : English
  154. Service kind                             : Complete Main
  155. Default                                  : No
  156. Forced                                   : No
  157. Original source medium                   : Blu-ray
  158. Audio #7
  159. ID                                       : 8
  160. ID in the original source medium         : 4356 (0x1104)
  161. Format                                   : AC-3
  162. Format/Info                              : Audio Coding 3
  163. Commercial name                          : Dolby Digital
  164. Codec ID                                 : A_AC3
  165. Duration                                 : 2 h 7 min
  166. Bit rate mode                            : Constant
  167. Bit rate                                 : 192 kb/s
  168. Channel(s)                               : 2 channels
  169. Channel layout                           : L R
  170. Sampling rate                            : 48.0 kHz
  171. Frame rate                               : 31.250 FPS (1536 SPF)
  172. Compression mode                         : Lossy
  173. Stream size                              : 175 MiB (0%)
  174. Title                                    : DD 2.0
  175. Language                                 : English
  176. Service kind                             : Complete Main
  177. Default                                  : No
  178. Forced                                   : No
  179. Original source medium                   : Blu-ray
  180. Text #1
  181. ID                                       : 9
  182. Format                                   : UTF-8
  183. Codec ID                                 : S_TEXT/UTF8
  184. Codec ID/Info                            : UTF-8 Plain Text
  185. Duration                                 : 2 h 2 min
  186. Bit rate                                 : 37 b/s
  187. Count of elements                        : 899
  188. Stream size                              : 33.5 KiB (0%)
  189. Title                                    : SRT
  190. Language                                 : English
  191. Default                                  : Yes
  192. Forced                                   : No
  193. Text #2
  194. ID                                       : 10
  195. ID in the original source medium         : 4768 (0x12A0)
  196. Format                                   : PGS
  197. Muxing mode                              : zlib
  198. Codec ID                                 : S_HDMV/PGS
  199. Codec ID/Info                            : Picture based subtitle format used on BDs/HD-DVDs
  200. Duration                                 : 2 h 2 min
  201. Bit rate                                 : 23.4 kb/s
  202. Count of elements                        : 1802
  203. Stream size                              : 20.5 MiB (0%)
  204. Language                                 : English
  205. Default                                  : No
  206. Forced                                   : No
  207. Original source medium                   : Blu-ray
  208. Text #3
  209. ID                                       : 11
  210. ID in the original source medium         : 4769 (0x12A1)
  211. Format                                   : PGS
  212. Muxing mode                              : zlib
  213. Codec ID                                 : S_HDMV/PGS
  214. Codec ID/Info                            : Picture based subtitle format used on BDs/HD-DVDs
  215. Duration                                 : 1 h 59 min
  216. Bit rate                                 : 7 156 b/s
  217. Count of elements                        : 516
  218. Stream size                              : 6.13 MiB (0%)
  219. Language                                 : English
  220. Default                                  : No
  221. Forced                                   : No
  222. Original source medium                   : Blu-ray
  223. Text #4
  224. ID                                       : 12
  225. ID in the original source medium         : 4770 (0x12A2)
  226. Format                                   : PGS
  227. Muxing mode                              : zlib
  228. Codec ID                                 : S_HDMV/PGS
  229. Codec ID/Info                            : Picture based subtitle format used on BDs/HD-DVDs
  230. Duration                                 : 2 h 4 min
  231. Bit rate                                 : 29.1 kb/s
  232. Count of elements                        : 2400
  233. Stream size                              : 25.9 MiB (0%)
  234. Language                                 : English
  235. Default                                  : No
  236. Forced                                   : No
  237. Original source medium                   : Blu-ray
  238. Menu
  239. 00:00:00.000                             : Chapter 00
  240. 00:00:34.034                             : Chapter 01
  241. 00:11:17.718                             : Chapter 02
  242. 00:20:33.315                             : Chapter 03
  243. 00:31:46.112                             : Chapter 04
  244. 00:44:54.942                             : Chapter 05
  245. 00:53:29.080                             : Chapter 06
  246. 01:01:27.934                             : Chapter 07
  247. 01:13:47.172                             : Chapter 08
  248. 01:26:34.564                             : Chapter 09
  249. 01:36:40.336                             : Chapter 10
  250. 01:48:44.851                             : Chapter 11
  251. 01:55:25.376                             : Chapter 12
复制代码




                                       
                                       

                                       
                                       
                                       




回复

使用道具 举报

懒得打字嘛,点击右侧快捷回复 【右侧内容,后台自定义】
您需要登录后才可以回帖 登录 | 立即加入

本版积分规则

Archiver|小黑屋| 蓝光电影网 |网站地图

Copyright © 2021 Comsenz Inc. Powered by 蓝光电影网

蓝光电影网

本站内容由用户自主分享和转载自互联网,转载目的在于传递更多信息,并不代表本网赞同其观点和对其真实性负责。

如有侵权、违反国家法律政策行为,请联系我们,我们会第一时间及时清除和处理!

举报反馈邮箱:[email protected]

快速回复 返回顶部 返回列表