找回密码

蓝光电影网

查看: 222|回复: 1

[剧情] 夜困摩天岭/崇山峻岭 High.Sierra.1941.1080p.BluRay.x264.FLAC.1.0-HANDJOB 7.28GB

[复制链接]
蓝光币
621
发表于 2021-10-17 09:11:32 | 显示全部楼层 |阅读模式


◎译  名 夜困摩天岭/一马平川/狂徒末路/高原对决
◎片  名 High Sierra
◎年  代 1941
◎产  地 美国
◎类  别 剧情 / 恋爱 / 惊悚 / 犯罪 / 黑色电影
◎语  言 英语
◎上映日期 1941-01-21
◎豆瓣评分 7.5/10 from 796 users
◎豆瓣链接 https://movie.douban.com/subject/1293262/
◎片  长 100 分钟
◎导  演 拉乌尔·沃尔什 Raoul Walsh
◎编  剧 约翰·休斯顿 John Huston / 威廉·赖利·伯内特 W.R. Burnett
◎主  演 艾达·卢皮诺 Ida Lupino
       亨弗莱·鲍嘉 Humphrey Bogart
       艾兰·柯蒂斯 Alan Curtis
       琼·莱斯利 Joan Leslie
◎标  签 美国 | 黑色电影 | 拉乌尔·沃尔什 | 犯罪 | 1940s | 美国电影 | 1941 | 黑色
◎简  介


  一部描写伏莽的影片。汉弗莱博加特饰演一位刚服刑美满的监犯,遇上昔日拍挡, 这人由于身染沉痾,想在临终前联同他再做一次大买卖…
  1. Video
  2. ID                                       : 1
  3. Format                                   : AVC
  4. Format/Info                              : Advanced Video Codec
  5. Format profile                           : [email protected]
  6. Format settings                          : CABAC / 5 Ref Frames
  7. Format settings, CABAC                   : Yes
  8. Format settings, Reference frames        : 5 frames
  9. Codec ID                                 : V_MPEG4/ISO/AVC
  10. Duration                                 : 1 h 39 min
  11. Bit rate                                 : 10.1 Mb/s
  12. Width                                    : 1 480 pixels
  13. Height                                   : 1 080 pixels
  14. Display aspect ratio                     : 1.370
  15. Frame rate mode                          : Constant
  16. Frame rate                               : 23.976 (24000/1001/189150) FPS
  17. Color space                              : YUV
  18. Chroma subsampling                       : 4:2:0
  19. Bit depth                                : 8 bits
  20. Scan type                                : Progressive
  21. Bits/(Pixel*Frame)                       : 0.264
  22. Stream size                              : 7.05 GiB (97%)
  23. Writing library                          : x264 core 163 r3059 b684ebe0
  24. Encoding settings                        : cabac=1 / ref=5 / deblock=1:-3:-3 / analyse=0x3:0x133 / me=umh / subme=10 / psy=1 / psy_rd=1.00:0.00 / mixed_ref=1 / me_range=32 / chroma_me=1 / trellis=2 / 8x8dct=1 / cqm=0 / deadzone=21,11 / fast_pskip=0 / chroma_qp_offset=-2 / threads=24 / lookahead_threads=6 / sliced_threads=0 / nr=0 / decimate=0 / interlaced=0 / bluray_compat=0 / constrained_intra=0 / bframes=16 / b_pyramid=2 / b_adapt=2 / b_bias=0 / direct=3 / weightb=1 / open_gop=0 / weightp=2 / keyint=240 / keyint_min=24 / scenecut=40 / intra_refresh=0 / rc_lookahead=60 / rc=crf / mbtree=0 / crf=21.5 / qcomp=0.60 / qpmin=0 / qpmax=69 / qpstep=4 / vbv_maxrate=62500 / vbv_bufsize=78125 / crf_max=0.0 / nal_hrd=none / filler=0 / ip_ratio=1.40 / pb_ratio=1.30 / aq=2:1.00
  25. Default                                  : Yes
  26. Forced                                   : No
  27. Color range                              : Limited
  28. Color primaries                          : BT.709
  29. Transfer characteristics                 : BT.709
  30. Matrix coefficients                      : BT.709
  31. Audio
  32. ID                                       : 2
  33. Format                                   : FLAC
  34. Format/Info                              : Free Lossless Audio Codec
  35. Codec ID                                 : A_FLAC
  36. Duration                                 : 1 h 39 min
  37. Bit rate mode                            : Variable
  38. Bit rate                                 : 316 kb/s
  39. Channel(s)                               : 1 channel
  40. Channel layout                           : C
  41. Sampling rate                            : 48.0 kHz
  42. Frame rate                               : 11.719 FPS (4096 SPF)
  43. Bit depth                                : 16 bits
  44. Detected bit depth                       : 24 bits
  45. Compression mode                         : Lossless
  46. Stream size                              : 226 MiB (3%)
  47. Writing library                          : libFLAC 1.3.1 (UTC 2014-11-25)
  48. Language                                 : English
  49. Default                                  : Yes
  50. Forced                                   : No
  51. Text #1
  52. ID                                       : 3
  53. Format                                   : UTF-8
  54. Codec ID                                 : S_TEXT/UTF8
  55. Codec ID/Info                            : UTF-8 Plain Text
  56. Duration                                 : 1 h 36 min
  57. Bit rate                                 : 75 b/s
  58. Count of elements                        : 1315
  59. Stream size                              : 53.2 KiB (0%)
  60. Title                                    : SRT
  61. Language                                 : English
  62. Default                                  : Yes
  63. Forced                                   : No
  64. Text #2
  65. ID                                       : 4
  66. Format                                   : PGS
  67. Muxing mode                              : zlib
  68. Codec ID                                 : S_HDMV/PGS
  69. Codec ID/Info                            : Picture based subtitle format used on BDs/HD-DVDs
  70. Duration                                 : 1 h 36 min
  71. Bit rate                                 : 66.3 kb/s
  72. Count of elements                        : 2895
  73. Stream size                              : 45.9 MiB (1%)
  74. Language                                 : English
  75. Default                                  : No
  76. Forced                                   : No
  77. Menu
  78. 00:00:00.000                             : :Desperado Released
  79. 00:06:35.395                             : :Shaw\'s Camp
  80. 00:15:20.586                             : :Mendoza\'s Plan
  81. 00:23:08.262                             : :A Fateful Accident
  82. 00:29:23.762                             : :"The Jewels, That\'s All I\'m Interested In"
  83. 00:34:48.920                             : :A Simple Operation
  84. 00:40:01.774                             : :"You Could Never Mean Nothing To Me, Nothing Special"
  85. 00:50:27.274                             : :Velma\'s Rejection
  86. 00:54:18.922                             : :The Heist
  87. 01:01:51.249                             : :Mac\'s Cold
  88. 01:08:40.158                             : :Marie Meets Velma
  89. 01:12:32.807                             : :"\'Mad Dog\' Earle Named as Robber-Killer"
  90. 01:23:20.746                             : :Manhunt To the Sierras
  91. 01:31:00.038                             : :"To the Coppers, Looks Like Curtains..."
复制代码







                                       
                                       

                                       
                                       
                                       




回复

使用道具 举报

蓝光币
35
发表于 2021-10-17 21:32:33 | 显示全部楼层
马丁斯科塞斯力荐的片子,终于有高清版本了
回复 支持 反对

使用道具 举报

懒得打字嘛,点击右侧快捷回复 【右侧内容,后台自定义】
您需要登录后才可以回帖 登录 | 立即加入

本版积分规则

Archiver|小黑屋| 蓝光电影网 |网站地图

Copyright © 2021 Comsenz Inc. Powered by 蓝光电影网

蓝光电影网

本站内容由用户自主分享和转载自互联网,转载目的在于传递更多信息,并不代表本网赞同其观点和对其真实性负责。

如有侵权、违反国家法律政策行为,请联系我们,我们会第一时间及时清除和处理!

举报反馈邮箱:[email protected]

快速回复 返回顶部 返回列表