找回密码

蓝光电影网

查看: 705|回复: 5

[10bit.HDR] 暗网:蝉3301 Dark.Web.Cicada.3301.2021.2160p.UHD.BluRay.x265.10bit.HDR.DTS-HD.MA.5.1-SURCODE 34.52GB

[复制链接]
蓝光币
621
发表于 2021-10-17 09:41:33 | 显示全部楼层 |阅读模式


◎译  名 暗网:蝉3301/Cicada 3301
◎片  名 Dark Web: Cicada 3301
◎年  代 2020
◎产  地 美国
◎类  别 剧情
◎语  言 英语
◎上映日期 2021-03-12(美国)
◎豆瓣评分 4.5/10 from 778 users
◎豆瓣链接 https://movie.douban.com/subject/33455263/
◎导  演 阿兰·里奇森 Alan Ritchson
◎编  剧 阿兰·里奇森 Alan Ritchson
◎主  演 杰克·凯西 Jack Kesy
       康纳·莱斯利 Conor Leslie
       阿兰·里奇森 Alan Ritchson
       罗恩·芬奇斯 Ron Funches
       克里斯·霍尔登-里德 Kris Holden-Ried
       汉娜克·塔波特 Hanneke Talbot
       安德里亚斯·艾波吉斯 Andreas Apergis
       克里斯·维奥莱特 Chris Violette
       托马索·萨里面 Tomaso Sanelli
       艾丽莎·奇塔姆 Alyssa Cheatham
◎标  签 犯罪 | 美国 | 收集平安 | 互联网 | 剧情 | 奥秘 | 反政府 | 2021
◎简  介


  Follows hacker Connor, his best friend Avi and a cunning librarian who find themselves over their heads when forced to compete in a sophisticated dark web secret society's global recruitment game.

  1. Video
  2. ID : 1
  3. Format : HEVC
  4. Format/Info : High Efficiency Video Coding
  5. Format profile : Main [email protected]@High
  6. HDR format : SMPTE ST 2086, HDR10 compatible
  7. Codec ID : V_MPEGH/ISO/HEVC
  8. Duration : 1 h 45 min
  9. Bit rate : 44.4 Mb/s
  10. Width : 3 840 pixels
  11. Height : 1 920 pixels
  12. Display aspect ratio : 2.000
  13. Frame rate mode : Constant
  14. Frame rate : 23.976 (24000/1001) FPS
  15. Color space : YUV
  16. Chroma subsampling : 4:2:0 (Type 2)
  17. Bit depth : 10 bits
  18. Bits/(Pixel*Frame) : 0.251
  19. Stream size : 32.6 GiB (96%)
  20. Writing library : x265 3.5+13-4c6880de4:[Windows][MSVC 1929][64 bit] 10bit
  21. Encoding settings : cpuid=1111039 / frame-threads=5 / numa-pools=32 / wpp / no-pmode / no-pme / no-psnr / no-ssim / log-level=2 / input-csp=1 / input-res=3840x1920 / interlace=0 / total-frames=151393 / level-idc=51 / high-tier=1 / uhd-bd=0 / ref=4 / no-allow-non-conformance / repeat-headers / annexb / aud / no-eob / no-eos / hrd / info / hash=0 / no-temporal-layers / no-open-gop / min-keyint=23 / keyint=250 / gop-lookahead=0 / bframes=4 / b-adapt=2 / b-pyramid / bframe-bias=0 / rc-lookahead=25 / lookahead-slices=4 / scenecut=40 / no-hist-scenecut / radl=0 / no-splice / no-intra-refresh / ctu=64 / min-cu-size=8 / rect / no-amp / max-tu-size=32 / tu-inter-depth=1 / tu-intra-depth=1 / limit-tu=0 / rdoq-level=2 / dynamic-rd=0.00 / no-ssim-rd / signhide / no-tskip / nr-intra=0 / nr-inter=0 / no-constrained-intra / no-strong-intra-smoothing / max-merge=3 / limit-refs=3 / limit-modes / me=3 / subme=3 / merange=57 / temporal-mvp / no-frame-dup / no-hme / weightp / no-weightb / no-analyze-src-pics / deblock=-3:-3 / no-sao / no-sao-non-deblock / rd=4 / selective-sao=0 / no-early-skip / rskip / no-fast-intra / no-tskip-fast / no-cu-lossless / no-b-intra / no-splitrd-skip / rdpenalty=0 / psy-rd=2.00 / psy-rdoq=1.00 / no-rd-refine / no-lossless / cbqpoffs=0 / crqpoffs=0 / rc=crf / crf=14.9 / qcomp=0.60 / qpstep=4 / stats-write=0 / stats-read=0 / vbv-maxrate=160000 / vbv-bufsize=160000 / vbv-init=0.9 / min-vbv-fullness=50.0 / max-vbv-fullness=80.0 / crf-max=0.0 / crf-min=0.0 / ipratio=1.40 / pbratio=1.30 / aq-mode=2 / aq-strength=1.00 / cutree / zone-count=0 / no-strict-cbr / qg-size=32 / no-rc-grain / qpmax=69 / qpmin=0 / no-const-vbv / sar=1 / overscan=0 / videoformat=5 / range=0 / colorprim=9 / transfer=16 / colormatrix=9 / chromaloc=1 / chromaloc-top=2 / chromaloc-bottom=2 / display-window=0 / master-display=G(13250,34500)B(7500,3000)R(34000,16000)WP(15635,16450)L(10000000,01) / cll=3979,517 / min-luma=0 / max-luma=1023 / log2-max-poc-lsb=8 / vui-timing-info / vui-hrd-info / slices=1 / no-opt-qp-pps / no-opt-ref-list-length-pps / no-multi-pass-opt-rps / scenecut-bias=0.05 / hist-threshold=0.03 / no-opt-cu-delta-qp / no-aq-motion / hdr10 / hdr10-opt / no-dhdr10-opt / no-idr-recovery-sei / analysis-reuse-level=0 / analysis-save-reuse-level=0 / analysis-load-reuse-level=0 / scale-factor=0 / refine-intra=0 / refine-inter=0 / refine-mv=1 / refine-ctu-distortion=0 / no-limit-sao / ctu-info=0 / no-lowpass-dct / refine-analysis-type=0 / copy-pic=1 / max-ausize-factor=1.0 / no-dynamic-refine / no-single-sei / no-hevc-aq / no-svt / no-field / qp-adaptation-range=1.00 / scenecut-aware-qp=0conformance-window-offsets / right=0 / bottom=0 / decoder-max-rate=0 / no-vbv-live-multi-pass
  22. Language : English
  23. Default : Yes
  24. Forced : No
  25. Color range : Limited
  26. Color primaries : BT.2020
  27. Transfer characteristics : PQ
  28. Matrix coefficients : BT.2020 non-constant
  29. Mastering display color primaries : Display P3
  30. Mastering display luminance : min: 0.0001 cd/m2, max: 1000 cd/m2
  31. Maximum Content Light Level : 3979 cd/m2
  32. Maximum Frame-Average Light Level : 517 cd/m2

  33. Audio #1
  34. ID : 2
  35. Format : DTS XLL
  36. Format/Info : Digital Theater Systems
  37. Commercial name : DTS-HD Master Audio
  38. Codec ID : A_DTS
  39. Duration : 1 h 45 min
  40. Bit rate mode : Variable
  41. Bit rate : 1 854 kb/s
  42. Channel(s) : 6 channels
  43. Channel layout : C L R Ls Rs LFE
  44. Sampling rate : 48.0 kHz
  45. Frame rate : 93.750 FPS (512 SPF)
  46. Bit depth : 16 bits
  47. Compression mode : Lossless
  48. Stream size : 1.36 GiB (4%)
  49. Title : Surround 5.1
  50. Language : English
  51. Default : Yes
  52. Forced : No

  53. Audio #2
  54. ID : 3
  55. Format : AAC LC
  56. Format/Info : Advanced Audio Codec Low Complexity
  57. Codec ID : A_AAC-2
  58. Duration : 1 h 45 min
  59. Bit rate : 135 kb/s
  60. Channel(s) : 2 channels
  61. Channel layout : L R
  62. Sampling rate : 48.0 kHz
  63. Frame rate : 46.875 FPS (1024 SPF)
  64. Compression mode : Lossy
  65. Delay relative to video : 9 ms
  66. Stream size : 102 MiB (0%)
  67. Title : commentary
  68. Language : English
  69. Default : No
  70. Forced : No

  71. Text #1
  72. ID : 4
  73. Format : PGS
  74. Muxing mode : zlib
  75. Codec ID : S_HDMV/PGS
  76. Codec ID/Info : Picture based subtitle format used on BDs/HD-DVDs
  77. Duration : 1 h 38 min
  78. Bit rate : 53.0 kb/s
  79. Count of elements : 2904
  80. Stream size : 37.3 MiB (0%)
  81. Language : German
  82. Default : No
  83. Forced : No

  84. Text #2
  85. ID : 5
  86. Format : PGS
  87. Muxing mode : zlib
  88. Codec ID : S_HDMV/PGS
  89. Codec ID/Info : Picture based subtitle format used on BDs/HD-DVDs
  90. Duration : 1 h 29 min
  91. Bit rate : 2 159 b/s
  92. Count of elements : 80
  93. Stream size : 1.38 MiB (0%)
  94. Title : forced
  95. Language : German
  96. Default : No
  97. Forced : No

  98. Menu
  99. 00:00:00.000 : en:Chapter 01
  100. 00:09:10.341 : en:Chapter 02
  101. 00:18:21.767 : en:Chapter 03
  102. 00:26:13.530 : en:Chapter 04
  103. 00:34:35.948 : en:Chapter 05
  104. 00:43:28.314 : en:Chapter 06
  105. 00:51:26.374 : en:Chapter 07
  106. 01:00:26.289 : en:Chapter 08
  107. 01:08:28.437 : en:Chapter 09
  108. 01:15:59.763 : en:Chapter 10
  109. 01:23:31.715 : en:Chapter 11
  110. 01:34:46.555 : en:Chapter 12
复制代码




                                       
                                       

                                       
                                       
                                       




回复

使用道具 举报

蓝光币
66
发表于 2021-10-17 11:11:51 | 显示全部楼层
感谢楼主分享,真心给个赞!!!
回复 支持 反对

使用道具 举报

蓝光币
60
发表于 2021-10-17 17:26:13 | 显示全部楼层
感谢,不错的。
回复 支持 反对

使用道具 举报

蓝光币
191
发表于 2021-10-17 17:29:10 | 显示全部楼层
谢谢分享
回复

使用道具 举报

蓝光币
7
发表于 2021-10-17 18:04:10 | 显示全部楼层
楼主发贴辛苦了,谢谢楼主分享!我觉得蓝光电影网是注册对了!
回复 支持 反对

使用道具 举报

蓝光币
37
发表于 2021-10-17 19:46:20 | 显示全部楼层

这个帖子不回对不起自己!我想我是一天也不能离开蓝光电影网。
回复 支持 反对

使用道具 举报

懒得打字嘛,点击右侧快捷回复 【右侧内容,后台自定义】
您需要登录后才可以回帖 登录 | 立即加入

本版积分规则

Archiver|小黑屋| 蓝光电影网 |网站地图

Copyright © 2021 Comsenz Inc. Powered by 蓝光电影网

蓝光电影网

本站内容由用户自主分享和转载自互联网,转载目的在于传递更多信息,并不代表本网赞同其观点和对其真实性负责。

如有侵权、违反国家法律政策行为,请联系我们,我们会第一时间及时清除和处理!

举报反馈邮箱:[email protected]

快速回复 返回顶部 返回列表