找回密码

蓝光电影网

查看: 192|回复: 1

[喜剧] 恶作剧老妈 Le.Vilain.2009.FRENCH.1080p.BluRay.x264.DTS-SbR 10.77GB

[复制链接]
蓝光币
621
发表于 2021-10-17 10:30:27 | 显示全部楼层 |阅读模式


◎译  名 恶作剧老妈
◎片  名 Le Vilain
◎年  代 2009
◎产  地 法国
◎类  别 笑剧
◎语  言 法语
◎上映日期 2009-11-18
◎豆瓣评分 7.1/10 from 71 users
◎豆瓣链接 https://movie.douban.com/subject/3068249/
◎片  长 86分钟
◎导  演 阿尔贝·杜邦泰尔 Albert Dupontel
◎编  剧 阿尔贝·杜邦泰尔 Albert Dupontel
◎主  演 凯瑟琳·弗洛 Catherine Frot
       阿尔贝·杜邦泰尔 Albert Dupontel
       伯纳尔·法西 Bernard Farcy
       菲利普·乌禅 Philippe Uchan
       伯利·兰内尔 Bouli Lanners
       勒内·莫拉尔 René Morard
◎标  签 法国 | 笑剧 | 法国电影 | Albert_Dupontel | 2009 | Catherine | 前看后忘 | 典范
◎简  介


  暂无相关剧情先容
  1. Video
  2. ID                                       : 1
  3. Format                                   : AVC
  4. Format/Info                              : Advanced Video Codec
  5. Format profile                           : [email protected]
  6. Format settings                          : CABAC / 4 Ref Frames
  7. Format settings, CABAC                   : Yes
  8. Format settings, Reference frames        : 4 frames
  9. Codec ID                                 : V_MPEG4/ISO/AVC
  10. Duration                                 : 1 h 27 min
  11. Bit rate                                 : 16.1 Mb/s
  12. Width                                    : 1 920 pixels
  13. Height                                   : 820 pixels
  14. Display aspect ratio                     : 2.35:1
  15. Frame rate mode                          : Constant
  16. Frame rate                               : 24.000 FPS
  17. Color space                              : YUV
  18. Chroma subsampling                       : 4:2:0
  19. Bit depth                                : 8 bits
  20. Scan type                                : Progressive
  21. Bits/(Pixel*Frame)                       : 0.427
  22. Stream size                              : 9.83 GiB (91%)
  23. Writing library                          : x264 core 164 r3065+62M b012ed0 devel [(8 & 10)[email protected] X86_64]
  24. Encoding settings                        : cabac=1 / ref=4 / deblock=1:-3:-3 / analyse=0x3:0x133 / me=umh / subme=11 / psy=1 / fade_compensate=0.00 / psy_rd=1.00:0.00 / mixed_ref=1 / me_range=32 / chroma_me=1 / trellis=2 / 8x8dct=1 / cqm=0 / deadzone=21,11 / fast_pskip=1 / chroma_qp_offset=-2 / threads=32 / lookahead_threads=6 / sliced_threads=0 / nr=0 / decimate=1 / interlaced=0 / bluray_compat=0 / constrained_intra=0 / fgo=0 / bframes=10 / b_pyramid=2 / b_adapt=2 / b_bias=0 / direct=3 / weightb=1 / open_gop=0 / weightp=2 / keyint=250 / keyint_min=24 / scenecut=40 / intra_refresh=0 / rc=crf / mbtree=0 / crf=18.0000 / qcomp=0.65 / qpmin=0:0:0 / qpmax=69:69:69 / qpstep=4 / ip_ratio=1.25 / pb_ratio=1.20 / aq=1:0.60 / aq-sensitivity=10.00 / aq-factor=1.00:1.00:1.00 / aq2=0 / aq3=0
  25. Language                                 : French
  26. Default                                  : Yes
  27. Forced                                   : No
  28. Audio
  29. ID                                       : 2
  30. Format                                   : DTS
  31. Format/Info                              : Digital Theater Systems
  32. Codec ID                                 : A_DTS
  33. Duration                                 : 1 h 27 min
  34. Bit rate mode                            : Constant
  35. Bit rate                                 : 1 509 kb/s
  36. Channel(s)                               : 6 channels
  37. Channel layout                           : C L R Ls Rs LFE
  38. Sampling rate                            : 48.0 kHz
  39. Frame rate                               : 93.750 FPS (512 SPF)
  40. Bit depth                                : 16 bits
  41. Compression mode                         : Lossy
  42. Stream size                              : 942 MiB (9%)
  43. Language                                 : French
  44. Default                                  : Yes
  45. Forced                                   : No
  46. Text #1
  47. ID                                       : 3
  48. Format                                   : ASS
  49. Codec ID                                 : S_TEXT/ASS
  50. Codec ID/Info                            : Advanced Sub Station Alpha
  51. Duration                                 : 1 h 25 min
  52. Bit rate                                 : 81 b/s
  53. Count of elements                        : 1058
  54. Compression mode                         : Lossless
  55. Stream size                              : 51.1 KiB (0%)
  56. Language                                 : English
  57. Default                                  : No
  58. Forced                                   : No
  59. Text #2
  60. ID                                       : 4
  61. Format                                   : UTF-8
  62. Codec ID                                 : S_TEXT/UTF8
  63. Codec ID/Info                            : UTF-8 Plain Text
  64. Duration                                 : 1 h 25 min
  65. Bit rate                                 : 45 b/s
  66. Count of elements                        : 1058
  67. Stream size                              : 28.2 KiB (0%)
  68. Language                                 : English
  69. Default                                  : No
  70. Forced                                   : No
  71. Text #3
  72. ID                                       : 5
  73. Format                                   : PGS
  74. Codec ID                                 : S_HDMV/PGS
  75. Codec ID/Info                            : Picture based subtitle format used on BDs/HD-DVDs
  76. Duration                                 : 1 h 27 min
  77. Bit rate                                 : 39.9 kb/s
  78. Count of elements                        : 2479
  79. Stream size                              : 24.9 MiB (0%)
  80. Language                                 : French
  81. Default                                  : No
  82. Forced                                   : No
  83. Menu
  84. 00:00:00.000                             : Chapter 01
  85. 00:07:06.208                             : Chapter 02
  86. 00:14:04.500                             : Chapter 03
  87. 00:23:01.500                             : Chapter 04
  88. 00:30:37.125                             : Chapter 05
  89. 00:37:10.500                             : Chapter 06
  90. 00:42:02.500                             : Chapter 07
  91. 00:49:11.917                             : Chapter 08
  92. 00:55:33.292                             : Chapter 09
  93. 01:03:03.208                             : Chapter 10
  94. 01:10:28.167                             : Chapter 11
  95. 01:24:01.125                             : Chapter 12
复制代码







                                       
                                       

                                       
                                       
                                       




回复

使用道具 举报

蓝光币
673
发表于 2021-10-17 20:04:05 | 显示全部楼层

我看不错噢 谢谢楼主!蓝光电影网越来越好!
回复 支持 反对

使用道具 举报

懒得打字嘛,点击右侧快捷回复 【右侧内容,后台自定义】
您需要登录后才可以回帖 登录 | 立即加入

本版积分规则

Archiver|小黑屋| 蓝光电影网 |网站地图

Copyright © 2021 Comsenz Inc. Powered by 蓝光电影网

蓝光电影网

本站内容由用户自主分享和转载自互联网,转载目的在于传递更多信息,并不代表本网赞同其观点和对其真实性负责。

如有侵权、违反国家法律政策行为,请联系我们,我们会第一时间及时清除和处理!

举报反馈邮箱:[email protected]

快速回复 返回顶部 返回列表