找回密码

蓝光电影网

查看: 233|回复: 0

[恐怖] 消失的呼喊 Fading.of.the.Cries.2008.1080p.BluRay.x264.DD5.1-HANDJOB 6.98GB

[复制链接]
蓝光币
621
发表于 2021-10-17 10:44:42 | 显示全部楼层 |阅读模式
[img][/img]

◎译  名 消失的呼喊
◎片  名 Fading of the Cries
◎年  代 2011
◎产  地 美国
◎类  别 可骇 / 奇异
◎语  言 英语
◎上映日期 
◎豆瓣评分 2.5/10 from 129 users
◎豆瓣链接 https://movie.douban.com/subject/3147798/
◎主  演 托马斯·伊恩·尼古拉斯 Thomas Ian Nicholas
       Heidi Shepherd Heidi Shepherd
       Court Dickert Court Dickert
       拉蒂夫·克劳德 Lateef Crowder
       Julia Whelan Julia Whelan
       Mackenzie Rosman Mackenzie Rosman
       哈莉·赫里什 Hallee Hirsh
       杰西卡·莫里斯 Jessica Morris
       布拉德·道里夫 Brad Dourif
       伊莲·亨德里克斯 Elaine Hendrix
        Michael J. Wagner
◎标  签 可贵看到的烂片 | 为什么不能评0分 | 美国 | 可骇 | 魔幻 | 美国电影 | 差 | 科幻
◎简  介


  叔叔留给萨拉一条陈腐的项链,是以遭到神父马赛厄斯的追杀。为了找到这条奥秘的项链,马赛厄斯在安好的小镇上散布瘟疫。一位叫雅各布的男人从死神手里拯救了萨拉,他用一把致命兵器保卫两人的生命。在流亡的路途中,他们被一群怪物追逐,雅各布在不经意间发现了家属的奥秘,想要真正克服**,唯一的法子是回抵家人被杀戮的地址。
  1. Video
  2. ID                                       : 1
  3. Format                                   : AVC
  4. Format/Info                              : Advanced Video Codec
  5. Format profile                           : [email protected]
  6. Format settings                          : CABAC / 5 Ref Frames
  7. Format settings, CABAC                   : Yes
  8. Format settings, Reference frames        : 5 frames
  9. Codec ID                                 : V_MPEG4/ISO/AVC
  10. Duration                                 : 1 h 33 min
  11. Bit rate                                 : 10.1 Mb/s
  12. Width                                    : 1 916 pixels
  13. Height                                   : 814 pixels
  14. Display aspect ratio                     : 2.35:1
  15. Frame rate mode                          : Constant
  16. Frame rate                               : 24.000 FPS
  17. Color space                              : YUV
  18. Chroma subsampling                       : 4:2:0
  19. Bit depth                                : 8 bits
  20. Scan type                                : Progressive
  21. Bits/(Pixel*Frame)                       : 0.269
  22. Stream size                              : 6.56 GiB (94%)
  23. Writing library                          : x264 core 157 r2935 545de2f
  24. Encoding settings                        : cabac=1 / ref=5 / deblock=1:-3:-3 / analyse=0x3:0x133 / me=umh / subme=11 / psy=1 / psy_rd=1.00:0.00 / mixed_ref=1 / me_range=32 / chroma_me=1 / trellis=2 / 8x8dct=1 / cqm=0 / deadzone=21,11 / fast_pskip=0 / chroma_qp_offset=-2 / threads=18 / lookahead_threads=4 / sliced_threads=0 / nr=0 / decimate=0 / interlaced=0 / bluray_compat=0 / constrained_intra=0 / bframes=16 / b_pyramid=2 / b_adapt=2 / b_bias=0 / direct=3 / weightb=1 / open_gop=0 / weightp=2 / keyint=240 / keyint_min=24 / scenecut=40 / intra_refresh=0 / rc_lookahead=60 / rc=crf / mbtree=0 / crf=18.8 / qcomp=0.60 / qpmin=0 / qpmax=69 / qpstep=4 / vbv_maxrate=62500 / vbv_bufsize=78125 / crf_max=0.0 / nal_hrd=none / filler=0 / ip_ratio=1.40 / pb_ratio=1.30 / aq=2:1.00
  25. Default                                  : Yes
  26. Forced                                   : No
  27. Color range                              : Limited
  28. Color primaries                          : BT.709
  29. Transfer characteristics                 : BT.709
  30. Matrix coefficients                      : BT.709
  31. Audio
  32. ID                                       : 2
  33. Format                                   : AC-3
  34. Format/Info                              : Audio Coding 3
  35. Commercial name                          : Dolby Digital
  36. Codec ID                                 : A_AC3
  37. Duration                                 : 1 h 33 min
  38. Bit rate mode                            : Constant
  39. Bit rate                                 : 640 kb/s
  40. Channel(s)                               : 6 channels
  41. Channel layout                           : L R C LFE Ls Rs
  42. Sampling rate                            : 48.0 kHz
  43. Frame rate                               : 31.250 FPS (1536 SPF)
  44. Compression mode                         : Lossy
  45. Stream size                              : 427 MiB (6%)
  46. Language                                 : English
  47. Service kind                             : Complete Main
  48. Default                                  : Yes
  49. Forced                                   : No
  50. Text
  51. ID                                       : 3
  52. Format                                   : PGS
  53. Muxing mode                              : zlib
  54. Codec ID                                 : S_HDMV/PGS
  55. Codec ID/Info                            : Picture based subtitle format used on BDs/HD-DVDs
  56. Duration                                 : 1 h 29 min
  57. Bit rate                                 : 16.3 kb/s
  58. Count of elements                        : 1155
  59. Stream size                              : 10.4 MiB (0%)
  60. Language                                 : German
  61. Default                                  : No
  62. Forced                                   : No
  63. Menu
  64. 00:00:00.083                             : :Chapter 1
  65. 00:02:47.458                             : :Chapter 2
  66. 00:11:41.458                             : :Chapter 3
  67. 00:20:48.583                             : :Chapter 4
  68. 00:29:20.208                             : :Chapter 5
  69. 00:38:56.833                             : :Chapter 6
  70. 00:48:18.333                             : :Chapter 7
  71. 00:56:46.458                             : :Chapter 8
  72. 01:06:17.458                             : :Chapter 9
  73. 01:15:04.208                             : :Chapter 10
  74. 01:22:47.083                             : :Chapter 11
  75. 01:29:40.708                             : :Chapter 12
复制代码






                                       
                                       

                                       
                                       
                                       




回复

使用道具 举报

懒得打字嘛,点击右侧快捷回复 【右侧内容,后台自定义】
您需要登录后才可以回帖 登录 | 立即加入

本版积分规则

Archiver|小黑屋| 蓝光电影网 |网站地图

Copyright © 2021 Comsenz Inc. Powered by 蓝光电影网

蓝光电影网

本站内容由用户自主分享和转载自互联网,转载目的在于传递更多信息,并不代表本网赞同其观点和对其真实性负责。

如有侵权、违反国家法律政策行为,请联系我们,我们会第一时间及时清除和处理!

举报反馈邮箱:[email protected]

快速回复 返回顶部 返回列表