找回密码

蓝光电影网

查看: 83|回复: 0

[剧情] 少年奧利佛 Night.Has.Settled.2014.1080p.AMZN.WEBRip.DD5.1.x264-NOGRP 3.81GB

[复制链接]
蓝光币
621
发表于 2021-10-21 21:21:30 | 显示全部楼层 |阅读模式


◎译  名 少年奧利佛/A Noite Acalmou/Spaz
◎片  名 Night Has Settled
◎年  代 2014
◎产  地 美国
◎类  别 剧情
◎语  言 英语
◎上映日期 2014-02-01(美国)
◎豆瓣评分 /10 from 0 users
◎豆瓣链接 https://movie.douban.com/subject/10767682/
◎片  长 90 分钟
◎导  演 斯蒂夫·克拉克 Steve Clark / 史蒂夫·克拉克 Steve Clark
◎编  剧 斯蒂夫·克拉克 Steve Clark / 史蒂夫·克拉克 Steve Clark
◎主  演 斯宾塞·李斯特 Spencer List
       皮拉尔·洛佩斯·德·阿亚拉 Pilar López de Ayala
       艾德里安娜·巴拉扎 Adriana Barraza
       埃里克·尼尔森 Eric Nelsen
       汤米·尼尔森 Tommy Nelson
       考特尼·巴克斯特 Courtney Baxter
       玛莉.罗伯特 Marlee Roberts
       史蒂夫·克拉克 Steve Clark
       Stanley Nallem Stanley Nallem
◎标  签 美国 | 剧情 | 2013 | 美国电影 | coming_of_age | US | A2000s | A
◎简  介


  奧利佛和同年齡的青少年並無分歧,對性、酒精及男女情愛皆感应非常猎奇。家裡的傭人艾達饰演著好像「母親」的脚色,給予奧利佛生活及心靈上的呵護,某天艾達突如其來地中風,也讓奧利佛的生活頓時失了控……
  1. Video
  2. ID                                       : 1
  3. Format                                   : AVC
  4. Format/Info                              : Advanced Video Codec
  5. Format profile                           : [email protected]
  6. Format settings                          : CABAC / 4 Ref Frames
  7. Format settings, CABAC                   : Yes
  8. Format settings, Reference frames        : 4 frames
  9. Codec ID                                 : V_MPEG4/ISO/AVC
  10. Duration                                 : 1 h 29 min
  11. Bit rate mode                            : Constant
  12. Bit rate                                 : 5 704 kb/s
  13. Nominal bit rate                         : 10 000 kb/s
  14. Width                                    : 1 920 pixels
  15. Height                                   : 1 080 pixels
  16. Display aspect ratio                     : 16:9
  17. Frame rate mode                          : Constant
  18. Frame rate                               : 23.976 (24000/1001/189150) FPS
  19. Color space                              : YUV
  20. Chroma subsampling                       : 4:2:0
  21. Bit depth                                : 8 bits
  22. Scan type                                : Progressive
  23. Bits/(Pixel*Frame)                       : 0.115
  24. Stream size                              : 3.57 GiB (94%)
  25. Default                                  : Yes
  26. Forced                                   : No
  27. Color range                              : Limited
  28. Color primaries                          : BT.709
  29. Transfer characteristics                 : BT.709
  30. Matrix coefficients                      : BT.709
  31. Audio
  32. ID                                       : 2
  33. Format                                   : AC-3
  34. Format/Info                              : Audio Coding 3
  35. Commercial name                          : Dolby Digital
  36. Codec ID                                 : A_AC3
  37. Duration                                 : 1 h 29 min
  38. Bit rate mode                            : Constant
  39. Bit rate                                 : 384 kb/s
  40. Channel(s)                               : 6 channels
  41. Channel layout                           : L R C LFE Ls Rs
  42. Sampling rate                            : 48.0 kHz
  43. Frame rate                               : 31.250 FPS (1536 SPF)
  44. Compression mode                         : Lossy
  45. Stream size                              : 246 MiB (6%)
  46. Language                                 : English
  47. Service kind                             : Complete Main
  48. Default                                  : Yes
  49. Forced                                   : No
  50. Text #1
  51. ID                                       : 3
  52. Format                                   : UTF-8
  53. Codec ID                                 : S_TEXT/UTF8
  54. Codec ID/Info                            : UTF-8 Plain Text
  55. Duration                                 : 1 h 27 min
  56. Bit rate                                 : 41 b/s
  57. Count of elements                        : 1066
  58. Stream size                              : 26.2 KiB (0%)
  59. Language                                 : English
  60. Default                                  : Yes
  61. Forced                                   : No
  62. Text #2
  63. ID                                       : 4
  64. Format                                   : UTF-8
  65. Codec ID                                 : S_TEXT/UTF8
  66. Codec ID/Info                            : UTF-8 Plain Text
  67. Duration                                 : 1 h 29 min
  68. Bit rate                                 : 42 b/s
  69. Count of elements                        : 1173
  70. Stream size                              : 28.1 KiB (0%)
  71. Title                                    : SDH
  72. Language                                 : English
  73. Default                                  : No
  74. Forced                                   : No
  75. Menu
  76. 00:00:00.000                             : en:At Home
  77. 00:06:56.000                             : en:At School
  78. 00:13:51.000                             : en:Back Home
  79. 00:20:29.000                             : en:Cigarettes
  80. 00:28:21.000                             : en:Hospital
  81. 00:35:44.000                             : en:Life Happensa€|
  82. 00:38:33.000                             : en:Party
  83. 00:47:10.000                             : en:Changes
  84. 00:56:40.000                             : en:Prayers
  85. 01:02:33.000                             : en:Teenage Rampage
  86. 01:14:02.000                             : en:Night Has Settled
  87. 01:25:54.000                             : en:Credits
复制代码







                                       
                                       

                                       
                                       
                                       




回复

使用道具 举报

懒得打字嘛,点击右侧快捷回复 【右侧内容,后台自定义】
您需要登录后才可以回帖 登录 | 立即加入

本版积分规则

Archiver|小黑屋| 蓝光电影网 |网站地图

Copyright © 2021 Comsenz Inc. Powered by 蓝光电影网

蓝光电影网

本站内容由用户自主分享和转载自互联网,转载目的在于传递更多信息,并不代表本网赞同其观点和对其真实性负责。

如有侵权、违反国家法律政策行为,请联系我们,我们会第一时间及时清除和处理!

举报反馈邮箱:[email protected]

快速回复 返回顶部 返回列表